Files 42316
» » Austin Mahone Ft Sean Garrett - Banga! Banga! 720p Music Video
Language: English
Size: 55.2 MB
Votes: 470
Downloaded: 38
Category: Video
Format: MP3, FLAC
4.5

File list

  • Austin Mahone Ft. Sean Garrett - Banga! Banga! [Music Video] 720p [Sbyky].mp4 (55.2 MB)

Music Video 720p Sbyky.

Music Video 720p Sbyky.

You’re a banga, banga, banga, banga, banga, I wanna pledge a bet Before the night is over, girl, I’m gonna make it that So, promise if I make you mine, so, promise if I make you mine You ain’t gonna play with that, show me where that turnt up at You’re a banga, banga, banga, banga

Banga! Banga!" is a song by American singer Austin Mahone.

Banga! Banga!" is a song by American singer Austin Mahone. It was released as a single on November 10, 2013. I'm turning 18 in a couple of months, so I'm just trying to make music that's maturing.

General Complete name : Austin Mahone Ft. Sean Garrett - Banga! . Sean Garrett - Banga! Banga! 720p.

me Austin Mahone Ft. Sean Garrett - Banga!

org Austin Mahone Ft. Sean Garrett - Banga! Banga! 108 Music. me Austin Mahone Ft. Sean Garrett - Banga! Banga! 108 Music Misc. me Austin Mahone Ft Sean Garrett - Banga! Banga! 1080p mp4 Music Videos. com Austin Mahone Ft Sean Garrett - Banga! Banga! 1080p Music. info n-Garrett-Banga -Banga -1080p- Movies. a guest Dec 23rd, 2013 67 Never. Music Video 720p Sbyky Torrent Download.

Singing heartthrob Austin Mahone has released the music video for his single called "Banga! . Banga! is nonetheless infectious to the ears of its target market. Is Mahone oozing with the Bieber swagger?

Singing heartthrob Austin Mahone has released the music video for his single called "Banga! Banga!" Check it out! Catchy lines like Im your Brad Pitt, you’ll be my future Angelina may sound typical to a teen pop track but Banga! Banga! is nonetheless infectious to the ears of its target market. Is Mahone oozing with the Bieber swagger? Austin Mahone. Next article →. Related Articles. Austin Mahone – ‘What About Love’ Music Video. nayeli perez // May 26, 2014 at 4:22 am //. I love Austin mahona.


General
Complete name : Austin Mahone Ft. Sean Garrett - Banga! Banga! [Music Video] 720p [Sbyky].mp4
Format : MPEG-4
Format profile : Base Media
Codec ID : isom
File size : 55.2 MiB
Duration : 3mn 27s
Overall bit rate mode : Variable
Overall bit rate : 2 235 Kbps
Encoded date : UTC 2013-12-12 22:54:49
Tagged date : UTC 2013-12-12 22:54:49
Video
ID : 1
Format : AVC
Format/Info : Advanced Video Codec
Format profile : [email protected]
Format settings, CABAC : Yes
Format settings, ReFrames : 3 frames
Codec ID : avc1
Codec ID/Info : Advanced Video Coding
Duration : 3mn 27s
Bit rate : 2 107 Kbps
Width : 1 280 pixels
Height : 720 pixels
Display aspect ratio : 16:9
Frame rate mode : Constant
Frame rate : 23.976 fps
Color space : YUV
Chroma subsampling : 4:2:0
Bit depth : 8 bits
Scan type : Progressive
Bits/(Pixel*Frame) : 0.095
Stream size : 52.0 MiB (94%)
Encoded date : UTC 2013-12-12 22:54:49
Tagged date : UTC 2013-12-12 22:54:49
Audio
ID : 2
Format : AAC
Format/Info : Advanced Audio Codec
Format profile : LC
Codec ID : 40
Duration : 3mn 27s
Bit rate mode : Variable
Bit rate : 126 Kbps
Channel(s) : 2 channels
Channel positions : Front: L R
Sampling rate : 44.1 KHz
Compression mode : Lossy
Delay relative to video : 42ms
Stream size : 3.10 MiB (6%)
Encoded date : UTC 2013-12-12 22:54:04
Tagged date : UTC 2013-12-12 22:54:04
Shared By Sbyky

Related music:
Britney Spears - Ooh La La 720p Music Video download Britney Spears - Ooh La La 720p Music Video
Video
English
66.7 MB
4.6
/images/5/2/britney-spears-ooh-la-la-720p-music-video-.jpg
Fall Out Boy - The Phoenix 720p Music Video download Fall Out Boy - The Phoenix 720p Music Video
Video
English
40.1 MB
4.1
/images/5/4/fall-out-boy-the-phoenix-720p-music-video-.jpg
Hot Chelle Rae - Hung Up 720p Music Video download Hot Chelle Rae - Hung Up 720p Music Video
Video
English
46.2 MB
4.5
/images/5/3/hot-chelle-rae-hung-up-720p-music-video-.jpg
Ariana Grande Ft Big Sean - Right There 720p Music Video download Ariana Grande Ft Big Sean - Right There 720p Music Video
Video
English
63.4 MB
4.1
/images/5/6/ariana-grande-ft-big-sean-right-there-720p-music-video-.jpg
John Newman - Love Me Again 720p Music Video download John Newman - Love Me Again 720p Music Video
Video
English
33.4 MB
4.9
/images/5/7/john-newman-love-me-again-720p-music-video-.jpg
Beyoncé - XO 720p Music Video download Beyoncé - XO 720p Music Video
Video
English
58.3 MB
4.2
/images/5/7/beyoncc3a9-xo-720p-music-video-.jpg
Pitbull Ft Ke$ha - Timber 720p Music Video download Pitbull Ft Ke$ha - Timber 720p Music Video
Video
English
46.9 MB
4.3
/images/5/5/pitbull-ft-ke24ha-timber-720p-music-video-.jpg
Jessie J - Thunder 720p Music Video download Jessie J - Thunder 720p Music Video
Video
English
33.5 MB
4.4
/images/5/2/jessie-j-thunder-720p-music-video-.jpg
Little Mix - Little Me 720p Music Video download Little Mix - Little Me 720p Music Video
Video
English
37.9 MB
4.1
/images/5/5/little-mix-little-me-720p-music-video-.jpg
Justin Timberlake - TKO 720p Music Video download Justin Timberlake - TKO 720p Music Video
Video
English
78.9 MB
4.3
/images/5/1/justin-timberlake-tko-720p-music-video-.jpg