Files 42316
» » Kelly Rowland Ft Big Sean - Lay It On Me 1080p Music Video
Language: English
Size: 97.5 MB
Votes: 431
Downloaded: 28
Category: Video
Format: MP3, FLAC
4.4

File list

  • Kelly Rowland Ft. Big Sean - Lay It On Me [Music Video] 1080p [Sbyky].mp4 (97.5 MB)

Here The New Song From Kelly Rowland ! That´s Music !. .Lay It On Me (Album Version). Sean Paul - How Deep Is Your Love (feat.

Lay It On Me (Album Version).

Kelly Rowland ft. Big Sean - Lay It On Me (Official Video) - Продолжительность: 4:09 Kelly Rowland 35 795 169 . Фильм 2019 мстил за измену - КРАСОТУЛЯ @ Русские мелодрамы 2019 новинки HD 1080P - Продолжительность: 2:55:23 BadBell Recommended for you.

Фильм 2019 мстил за измену - КРАСОТУЛЯ @ Русские мелодрамы 2019 новинки HD 1080P - Продолжительность: 2:55:23 BadBell Recommended for you.

Kelly Rowland, Big Sean. on turn you to my school girl Smack you with my ruler girl You know ow I do it girl

Home 2016 Февраль 23 Kelly Rowland feat.

Home 2016 Февраль 23 Kelly Rowland feat. Big Sean - Lay It On Me (2011). Big Sean - Lay It On Me. Video: MPEG4 Video (H264) 1920x1080 3. 08fps 2. Mbps Audio: AAC 44100Hz stereo 129kbps. Migos ft. Drake - Walk It Talk It (2018).

Здесь вы можете прослушать песню Kelly Rowland - Lay It On Me (F.

Здесь вы можете прослушать песню Kelly Rowland - Lay It On Me (Ft. Big Sean) онлайн в плеере бесплатно. Слушай музыку только в хорошем качестве. Kelly Rowland - Talk A Good Game (Feat. Kelly Rowland - Like This (Ft. Eve). Kelly Rowland - I'm Dat Chick. Kelly Rowland - Forever And A Day (Antoine Clamaran Extended Mix).

Kelly Rowland совместно с Big Sean с хитом Lay It On Me (2011). Big Sean – One Man Can Change The World. DJ Khaled – How Many Times. Drake, Kanye West – Blessings. Big Sean – Dark Sky. Big Sean feat. E-40 – I Don’t F k With You. Eminem – Detroit Vs. Everybody.

andre77 12 October 2011 16:13. публикаций комментариев. Russian Music Videos.


General
Complete name : Kelly Rowland Ft. Big Sean - Lay It On Me [Music Video] 1080p [Sbyky].mp4
Format : MPEG-4
Format profile : Base Media / Version 2
Codec ID : mp42
File size : 97.5 MiB
Duration : 4mn 8s
Overall bit rate mode : Variable
Overall bit rate : 3 288 Kbps
Encoded date : UTC 2013-04-11 18:22:51
Tagged date : UTC 2013-04-11 18:22:51
Video
ID : 1
Format : AVC
Format/Info : Advanced Video Codec
Format profile : [email protected]
Format settings, CABAC : Yes
Format settings, ReFrames : 1 frame
Codec ID : avc1
Codec ID/Info : Advanced Video Coding
Duration : 4mn 8s
Bit rate : 3 094 Kbps
Maximum bit rate : 14.7 Mbps
Width : 1 920 pixels
Height : 1 080 pixels
Display aspect ratio : 16:9
Frame rate mode : Constant
Frame rate : 23.976 fps
Color space : YUV
Chroma subsampling : 4:2:0
Bit depth : 8 bits
Scan type : Progressive
Bits/(Pixel*Frame) : 0.062
Stream size : 91.7 MiB (94%)
Tagged date : UTC 2013-04-11 18:23:01
Audio
ID : 2
Format : AAC
Format/Info : Advanced Audio Codec
Format profile : LC
Codec ID : 40
Duration : 4mn 8s
Bit rate mode : Variable
Bit rate : 192 Kbps
Maximum bit rate : 202 Kbps
Channel(s) : 2 channels
Channel positions : Front: L R
Sampling rate : 44.1 KHz
Compression mode : Lossy
Stream size : 5.69 MiB (6%)
Title : IsoMedia File Produced by Google, 5-11-2011
Encoded date : UTC 2013-04-11 18:22:58
Tagged date : UTC 2013-04-11 18:23:01
Shared By Sbyky

Related music:
Kelly Clarkson - Catch My Breath 1080p Music Video download Kelly Clarkson - Catch My Breath 1080p Music Video
Video
English
78.9 MB
4.9
/images/5/6/kelly-clarkson-catch-my-breath-1080p-music-video-.jpg
Kelly Rowland Ft Big Sean - Lay It On Me 720p Music Video download Kelly Rowland Ft Big Sean - Lay It On Me 720p Music Video
Video
English
52.7 MB
4.1
/images/5/6/kelly-rowland-ft-big-sean-lay-it-on-me-720p-music-video-.jpg
PSY - Gentleman 1080p Music Video download PSY - Gentleman 1080p Music Video
Video
English
145.3 MB
4.7
/images/5/2/psy-gentleman-1080p-music-video-.jpg
J Cole - Work Out 1080p Music Video download J Cole - Work Out 1080p Music Video
Video
English
153.3 MB
4.1
/images/5/3/j-cole-work-out-1080p-music-video-.jpg
Kelly Clarkson - Dark Side 1080p Music Video download Kelly Clarkson - Dark Side 1080p Music Video
Video
English
104.7 MB
4.5
/images/5/1/kelly-clarkson-dark-side-1080p-music-video-.jpg
Little Mix - Little Me 1080p Music Video download Little Mix - Little Me 1080p Music Video
Video
English
74.7 MB
4.9
/images/5/1/little-mix-little-me-1080p-music-video-.jpg
INNA - Wow 1080p Music Video download INNA - Wow 1080p Music Video
Video
English
152.3 MB
4.0
/images/noimage.jpg
Wiz Khalifa Ft Akon - Let It Go 1080p Music Video download Wiz Khalifa Ft Akon - Let It Go 1080p Music Video
Video
English
117.5 MB
4.2
/images/5/6/wiz-khalifa-ft-akon-let-it-go-1080p-music-video-.jpg
Future - Honest 1080p Music Video download Future - Honest 1080p Music Video
Video
English
100.8 MB
4.3
/images/5/8/future-honest-1080p-music-video-.jpg
Kelly Rowland - Kisses Down Low 720p Music Video download Kelly Rowland - Kisses Down Low 720p Music Video
Video
English
82.9 MB
4.7
/images/5/0/kelly-rowland-kisses-down-low-720p-music-video-.jpg