Files 42316
» » INNA - Wow 1080p Music Video
Language: English
Size: 152.3 MB
Votes: 403
Downloaded: 56
Category: Video
Format: MP3, FLAC
4.0

File list

  • INNA - Wow [Music Video] 1080p [Sbyky].MP4 (152.3 MB)

INNA WOW Official Video HD. MrWowpvpshadow. INNA - Yalla Official Music Video - Продолжительность: 3:17 INNA Recommended for you.

INNA WOW Official Video HD. 3:17. 10 топ актеров с дефектами внешности - Продолжительность: 14:30 КИНОКРИТИКА Recommended for you. 14:30. Summer Music Mix 2019 Best Of Tropical & Deep House Sessions Chill Out Mix By Music Trap - Продолжительность: 2:08:12 Music Trap Recommended for you.

Inna makes the party fun and kinky with the release of her brand new video for the single Wow. In the summery and colorful visual, Inna done several sexy outfits as she turns the temperature up. Inna - WOW (2012, House, HD 1080p). Shy Glizzy – Awwsome Music Video.

adam dark Video Music Lover <3 V. I. . Video ID : 1 Format : AVC Format/Info : Advanced Video Codec Format profile : [email protected] INNA - Tu Manera 2019 (Master 1080p). P. Joined: Dec 5, 2013. 1 Format settings, CABAC : Yes Format settings, ReFrames : 4 frames Codec ID : V MPEG4/ISO/AVC Duration : 4mn 52s Bit rate : 1. Mbps Width : 1 920 pixels Height : 1 080 pixels Display aspect ratio : 16:9 Frame rate mode : Constant Frame rate : 2. 00.

Inna - Wow (Official Video) from Ultra Music. Ultra Music is an American independent electronic music record label based in New York City. Ultra's current roster includes deadmau5, Benny Benassi, Kaskade, Wolfgang Gartner, The Bloody Beetroots, Steve Aoki, Lil Jon, Armin van Buuren, Above & Beyond, Ferry Corsten, Alex Gaudino, Congorock, Adrian Lux, Fedde Le Grand, Axwell, TOKiMonsta, Alexandra Stan and others.

Feedback :: Обратная Связь.

Official music video by INNA performing the single. Swedish House Mafia - Greyhound - Extended Video Remix HD. danielj0hansson.

INNA - Heaven Official Music Video. INNA - Bop Bop (feat. Eric Turner) Official Music Video. Yandel - In Your Eyes Official Music Video. INNA - Spre Mare Videoclip Oficial.


General
Complete name : INNA - Wow [Music Video] 1080p [Sbyky].MP4
Format : MPEG-4
Format profile : Base Media / Version 2
Codec ID : mp42
File size : 152 MiB
Duration : 4mn 52s
Overall bit rate mode : Variable
Overall bit rate : 4 366 Kbps
Encoded date : UTC 2013-09-10 00:24:12
Tagged date : UTC 2013-09-10 00:24:12
Video
ID : 1
Format : AVC
Format/Info : Advanced Video Codec
Format profile : [email protected]
Format settings, CABAC : Yes
Format settings, ReFrames : 2 frames
Codec ID : avc1
Codec ID/Info : Advanced Video Coding
Duration : 4mn 52s
Bit rate : 4 113 Kbps
Width : 1 920 pixels
Height : 1 080 pixels
Display aspect ratio : 16:9
Frame rate mode : Constant
Frame rate : 25.000 fps
Color space : YUV
Chroma subsampling : 4:2:0
Bit depth : 8 bits
Scan type : Progressive
Bits/(Pixel*Frame) : 0.079
Stream size : 143 MiB (94%)
Encoded date : UTC 2013-09-10 00:24:12
Tagged date : UTC 2013-09-10 00:24:12
Audio
ID : 2
Format : AAC
Format/Info : Advanced Audio Codec
Format profile : LC
Codec ID : 40
Duration : 4mn 52s
Bit rate mode : Variable
Bit rate : 254 Kbps
Channel(s) : 2 channels
Channel positions : Front: L R
Sampling rate : 44.1 KHz
Compression mode : Lossy
Stream size : 8.85 MiB (6%)
Encoded date : UTC 2013-09-10 00:21:42
Tagged date : UTC 2013-09-10 00:21:42
Shared By Sbyky

Related music:
John Legend - All Of Me 1080p Music Video download John Legend - All Of Me 1080p Music Video
Video
English
156.2 MB
4.2
/images/5/3/john-legend-all-of-me-1080p-music-video-.jpg
Little Mix - Little Me 1080p Music Video download Little Mix - Little Me 1080p Music Video
Video
English
74.7 MB
4.9
/images/5/1/little-mix-little-me-1080p-music-video-.jpg
Pitbull - I Know You Want Me 1080p Music Video download Pitbull - I Know You Want Me 1080p Music Video
Video
English
96.3 MB
4.3
/images/5/9/pitbull-i-know-you-want-me-1080p-music-video-.jpg
Fall Out Boy - The Phoenix 1080p Music Video download Fall Out Boy - The Phoenix 1080p Music Video
Video
English
77.6 MB
4.9
/images/5/8/fall-out-boy-the-phoenix-1080p-music-video-.jpg
Avicii - Hey Brother 1080p Music Video download Avicii - Hey Brother 1080p Music Video
Video
English
73.7 MB
4.9
/images/5/4/avicii-hey-brother-1080p-music-video-.jpg
Demi Lovato - Let It Go 1080p Music Video download Demi Lovato - Let It Go 1080p Music Video
Video
English
87.5 MB
4.0
/images/5/9/demi-lovato-let-it-go-1080p-music-video-.jpg
Passenger - Let Her Go 1080p Music Video download Passenger - Let Her Go 1080p Music Video
Video
English
86.7 MB
4.2
/images/5/0/passenger-let-her-go-1080p-music-video-.jpg