Files 42316
» » Romantic New Hit Hindi 2012 Mashup Songs [email protected] com-NIKHIL
Language: Hindi
Size: 16.7 MB
Votes: 890
Downloaded: 27
Category: Video
Format: MP3, FLAC
4.2

File list

2012 Mashup Songs By~~loveislifeorloversl.

Romantic New Hit Hindi 2012 Mashup Songs By~~loveislifeorloversl. Not a member of Pastebin yet?

Album - nature of love song - mohabbat ki pehchan singer - rupesh verma & anita bhatt music - rupesh & girish . xtracted N Collected by - NIKHIL. This torrent is brought to u by.

Album - nature of love song - mohabbat ki pehchan singer - rupesh verma & anita bhatt music - rupesh & girish lyrics - nazar jaipuri label - paliwal music. Entertainment License : Standard YouTube License. Downloads: 4484.

NIKHIL Hit Romantic Mashup gmail mp4 loveislifeorlovers Hindi New Songs com By 2012 . g. Total Requests . gb. Saturday Night Remixes 250-430 VBR HINDI MUSIC. 24. MB. Kesari Full Movie 2019 New Release Hindi Full. If the content above is not authorized, please contact us via contactp2bt. Remember to include the full url in your complaint.

83 GiB (6256363243 Bytes)

83 GiB (6256363243 Bytes). hilsweet/Snap 20100502123402 002. Get this torrent PLAY/STREAM TORRENT.

ch -By loveislifeorlovers gmail-com NIKHIL-mp4 Other. eu Romantic New Hit Hindi 2012 Mashup Songs By~~loveislifeorloversl. Be careful of what you download or face the consequences. eu Romantic New Hit Hindi 2012 Mashup Songs ~~NIKHIL.

Which is a special gift from my side.

Synopsis by NIKHIL VERMA for ROMANTIC MELODIOUS HEART TOUCHING HINDI SONGS ~~NIKHIL . . WHICH IS A SPECIAL GIFT FROM MY SIDE. king::drunk: LISTEN AND ENJOY THE SONGS.

Report Community Violation.

Hindi Romantic Songs app offers the largest collection of New Romantic .

Hindi Romantic Songs app offers the largest collection of New Romantic Songs & New Love Video Songs. Just download Hindi Romantic Songs, app from Old New Songs and pocket over new, top and New Hindi Video Songs & Old Hindi Video Songs collection.

Romantic New Hit Hindi 2012 Mashup Songs [email protected]~~NIKHIL

Published on Dec 13, 2012
ALBUM - NATURE OF LOVE
SONG - MOHABBAT KI PEHCHAN
SINGER - RUPESH VERMA [ RV ] & ANITA BHATT
MUSIC - RUPESH & GIRISH
LYRICS - NAZAR JAIPURI
LABEL - PALIWAL MUSIC
Entertainment License : Standard YouTube License
screens:--




Media Info:--
Format : MPEG-4
Format profile : Base Media / Version 2
Codec ID : mp42
File size : 16.7 MiB
Duration : 4mn 46s
Overall bit rate : 489 Kbps
Encoded date : UTC 2012-12-12 18:30:48
Tagged date : UTC 2012-12-12 18:30:48
gsst : 0
gstd : 286951
gssd : B71C1B5E7MH1357816103474101
gshh : r4---sn-up3vo5-itqe.c.youtube.com
Video
ID : 1
Format : AVC
Format/Info : Advanced Video Codec
Format profile : [email protected]
Format settings, CABAC : No
Format settings, ReFrames : 1 frame
Codec ID : avc1
Codec ID/Info : Advanced Video Coding
Duration : 4mn 46s
Bit rate mode : Variable
Bit rate : 391 Kbps
Maximum bit rate : 1 012 Kbps
Width : 480 pixels
Height : 360 pixels
Display aspect ratio : 4:3
Frame rate mode : Constant
Frame rate : 24.000 fps
Color space : YUV
Chroma subsampling : 4:2:0
Bit depth : 8 bits
Scan type : Progressive
Bits/(Pixel*Frame) : 0.094
Stream size : 13.3 MiB (80%)
Tagged date : UTC 2012-12-12 18:30:48
Audio
ID : 2
Format : AAC
Format/Info : Advanced Audio Codec
Format profile : LC
Codec ID : 40
Duration : 4mn 46s
Bit rate mode : Variable
Bit rate : 96.0 Kbps
Maximum bit rate : 104 Kbps
Channel(s) : 2 channels
Channel positions : Front: L R
Sampling rate : 44.1 KHz
Compression mode : Lossy
Stream size : 3.28 MiB (20%)
Title : IsoMedia File Produced by Google, 5-11-2011
Encoded date : UTC 2012-12-12 18:30:48
Tagged date : UTC 2012-12-12 18:30:48
xtracted N Collected by -- NIKHIL

THIS TORRENT IS BROUGHT TO U BY

Related music:
Hawa Hawa E Hawa - Chaalis Chauraasi 2012 ^^@nnY dX^^ Full Song 720p HD 4084 download Hawa Hawa E Hawa - Chaalis Chauraasi 2012 ^^@nnY dX^^ Full Song 720p HD 4084
Video
Hindi
69.5 MB
4.2
/images/5/6/hawa-hawa-e-hawa-chaalis-chauraasi-2012-5e5e40nny-dx5e5e-full-song-720p-hd-4084.jpg
SlaughterHouse - Goodbye 720p kely258 download SlaughterHouse - Goodbye 720p kely258
Video
English
50.9 MB
4.3
/images/5/6/slaughterhouse-goodbye-720p-kely258.jpg
Rihanna - Where Have You Been 1080p Music Video download Rihanna - Where Have You Been 1080p Music Video
Video
English
140.9 MB
4.3
/images/5/3/rihanna-where-have-you-been-1080p-music-video-.jpg
Flo Rida - Whistle 1080p Music Video download Flo Rida - Whistle 1080p Music Video
Video
English
145.4 MB
4.3
/images/5/7/flo-rida-whistle-1080p-music-video-.jpg
Rihanna - Where Have You Been 720p Music Video download Rihanna - Where Have You Been 720p Music Video
Video
English
71.7 MB
4.8
/images/5/3/rihanna-where-have-you-been-720p-music-video-.jpg
Taylor Swift - I Knew You Were Trouble 720p Music Video download Taylor Swift - I Knew You Were Trouble 720p Music Video
Video
English
52.1 MB
4.3
/images/5/1/taylor-swift-i-knew-you-were-trouble-720p-music-video-.jpg
Maroon 5 - One More Night 1080p Music Video download Maroon 5 - One More Night 1080p Music Video
Video
English
162.8 MB
4.4
/images/5/9/maroon-5-one-more-night-1080p-music-video-.jpg
Ik Tu Hi Tu Hi - Mausam 720P HD Video Song 2011 download Ik Tu Hi Tu Hi - Mausam 720P HD Video Song 2011
Video
Hindi
86.3 MB
4.4
/images/5/7/ik-tu-hi-tu-hi-mausam-720p-hd-video-song-2011.jpg
Nicki Minaj - Va Va Voom 720p download Nicki Minaj - Va Va Voom 720p
Video
English
50.5 MB
4.9
/images/5/8/nicki-minaj-va-va-voom-720p-.jpg