Files 42316
» » Eminem Ft Rihanna - The Monster 1080p
Language: English
Size: 108.0 MB
Votes: 991
Downloaded: 33
Category: Video
Format: MP3, FLAC
4.7

File list

  • Eminem Ft. Rihanna - The Monster [Explicit] 1080p [Sbyky].MP4 (108.0 MB)

Eminem & Rihanna The Monster HD (1080p). Eminem - Love The Way You Lie ft. Rihanna - Продолжительность: 4:27 EminemMusic Recommended for you. 4:27.

Eminem & Rihanna The Monster HD (1080p). Phil Collins - I Missed Again (Official Music Video) - Продолжительность: 3:56 Phil Collins Recommended for you.

Авторы текста и музыки. Maki Athanasiou, Aalias, Bebe Rexha, Frequency, Jon Bellion, Rihanna, Eminem. SCHOKK (ДИМА БАМБЕРГ) угадывает строчки OXXXYMIRON, ДЖАРАХОВА, GONE.

Migos ft. Drake - Walk It Talk It (2018) Anya Ft. Jay Ko - One (2009).

Rihanna) by Eminem from desktop or your mobile device.

The Monster" is a song from American rapper Eminem's album The Marshall Mathers LP 2 (2013) featuring Barbadian singer Rihanna and guest vocals by Bebe Rexha. The song was written by Bebe Rexha, Jon Bellion, and AKS from Prosper, with production handled by Frequency. The Monster" marks the fourth collaboration between Eminem and Rihanna, following "Love the Way You Lie" (2010), its sequel "Love the Way You Lie (Part II)" (2010), and "Numb" (2012)

Rihanna - The Monster (1080p-flac-hiepham)

Rihanna - The Monster (1080p-flac-hiepham). 0 ('The Edge Of The In Between') built.


General
Complete name : Eminem Ft. Rihanna - The Monster [Explicit] 1080p [Sbyky].MP4
Format : MPEG-4
Format profile : Base Media
Codec ID : isom
File size : 108 MiB
Duration : 5mn 18s
Overall bit rate mode : Variable
Overall bit rate : 2 844 Kbps
Encoded date : UTC 2013-12-15 19:30:14
Tagged date : UTC 2013-12-15 19:30:14
Video
ID : 1
Format : AVC
Format/Info : Advanced Video Codec
Format profile : [email protected]
Format settings, CABAC : Yes
Format settings, ReFrames : 2 frames
Codec ID : avc1
Codec ID/Info : Advanced Video Coding
Duration : 5mn 18s
Bit rate : 2 715 Kbps
Width : 1 920 pixels
Height : 1 080 pixels
Display aspect ratio : 16:9
Frame rate mode : Variable
Frame rate : 23.976 fps
Minimum frame rate : 23.974 fps
Maximum frame rate : 3 461.539 fps
Color space : YUV
Chroma subsampling : 4:2:0
Bit depth : 8 bits
Scan type : Progressive
Bits/(Pixel*Frame) : 0.055
Stream size : 103 MiB (95%)
Encoded date : UTC 2013-12-15 19:30:14
Tagged date : UTC 2013-12-15 19:30:14
Audio
ID : 2
Format : AAC
Format/Info : Advanced Audio Codec
Format profile : LC
Codec ID : 40
Duration : 5mn 18s
Bit rate mode : Variable
Bit rate : 126 Kbps
Channel(s) : 2 channels
Channel positions : Front: L R
Sampling rate : 44.1 KHz
Compression mode : Lossy
Delay relative to video : 42ms
Stream size : 4.77 MiB (4%)
Encoded date : UTC 2013-12-15 19:30:00
Tagged date : UTC 2013-12-15 19:30:00
Shared By Sbyky

Related music:
Pitbull Ft Ke$ha - Timber 1080p Music Video download Pitbull Ft Ke$ha - Timber 1080p Music Video
Video
English
85.8 MB
4.4
/images/5/7/pitbull-ft-ke24ha-timber-1080p-music-video-.jpg
Eminem Ft Rihanna - The Monster 720p download Eminem Ft Rihanna - The Monster 720p
Video
English
57.4 MB
4.9
/images/5/3/eminem-ft-rihanna-the-monster-720p-.jpg
Eminem - Rap God 1080p download Eminem - Rap God 1080p
Video
English
146.1 MB
4.9
/images/5/3/eminem-rap-god-1080p-.jpg
Little Mix - Little Me 1080p Music Video download Little Mix - Little Me 1080p Music Video
Video
English
74.7 MB
4.9
/images/5/1/little-mix-little-me-1080p-music-video-.jpg
A$AP Rocky - Goldie 1080p download A$AP Rocky - Goldie 1080p
Video
English
76.4 MB
4.3
/images/5/1/a24ap-rocky-goldie-1080p-.jpg
YG Ft DJ Mustard - Pop It, Shake It 1080p Music Video download YG Ft DJ Mustard - Pop It, Shake It 1080p Music Video
Video
English
110.0 MB
4.7
/images/5/9/yg-ft-dj-mustard-pop-it2c-shake-it-1080p-music-video-.jpg
Tyga Ft Justin Bieber - Wait For A Minute 1080p download Tyga Ft Justin Bieber - Wait For A Minute 1080p
Video
English
97.8 MB
4.1
/images/5/3/tyga-ft-justin-bieber-wait-for-a-minute-1080p-.jpg
Passenger - Let Her Go 1080p Music Video download Passenger - Let Her Go 1080p Music Video
Video
English
86.7 MB
4.2
/images/5/0/passenger-let-her-go-1080p-music-video-.jpg