Files 42316
» » Dj Robert Georgescu Ft Lara - Beside You 1080p Music Video
Language: English
Size: 60.9 MB
Votes: 917
Downloaded: 46
Category: Video
Format: MP3, FLAC
4.2

File list

  • Dj Robert Georgescu Ft. Lara - Beside You [Music Video] 1080p [Sbyky].MP4 (60.9 MB)

Cedric Gervais - Molly (Official Music Video). Dj Robert Georgescu ft Lara - Beside you (Official Video).

Cedric Gervais - Molly (Official Music Video).

Dj Robert Georgescu ft Lara –Beside you (Extended Version). Robert Georgescu and Lara –Beside You (DjTayNaChris Fer and Chris Remi. :11. Dj Robert Georgescu Feat.

Lara - Beside You. Beside You. Download MP3.

Dj Robert Georgescu ft Lara – Beside You. Найти. Robert Georgescu Lara – Beside You (D. ayNa Chris Ferres Remi. :06. Dj Robert Georgescu ft Lara – Beside You. 5:52. ayNa Chris Ferres Remix 2011. Dj robert georgescu ft.

General Complete name : Dj Robert Georgescu F. Video ID : 1 Format : AVC Format/Info : Advanced Video Codec Format profile : Format settings, CABAC : Yes Format settings, ReFrames : 3 frames Codec ID : avc1 Codec ID/Info : Advanced Video Coding Duration : 3mn 16s Duration LastFrame : -39ms Bit rate : 2 477 Kbps Width : 1 920 pixels Height : 1 080 pixels Display aspect ratio : 16:9 Frame rate mode


General
Complete name : Dj Robert Georgescu Ft. Lara - Beside You [Music Video] 1080p [Sbyky].MP4
Format : MPEG-4
Format profile : Base Media
Codec ID : isom
File size : 60.9 MiB
Duration : 3mn 16s
Overall bit rate mode : Variable
Overall bit rate : 2 604 Kbps
Encoded date : UTC 2014-03-07 11:10:34
Tagged date : UTC 2014-03-07 11:10:34
Video
ID : 1
Format : AVC
Format/Info : Advanced Video Codec
Format profile : [email protected]
Format settings, CABAC : Yes
Format settings, ReFrames : 3 frames
Codec ID : avc1
Codec ID/Info : Advanced Video Coding
Duration : 3mn 16s
Duration_LastFrame : -39ms
Bit rate : 2 477 Kbps
Width : 1 920 pixels
Height : 1 080 pixels
Display aspect ratio : 16:9
Frame rate mode : Constant
Frame rate : 25.000 fps
Color space : YUV
Chroma subsampling : 4:2:0
Bit depth : 8 bits
Scan type : Progressive
Bits/(Pixel*Frame) : 0.048
Stream size : 57.9 MiB (95%)
Encoded date : UTC 2014-03-07 11:10:34
Tagged date : UTC 2014-03-07 11:10:34
Audio
ID : 2
Format : AAC
Format/Info : Advanced Audio Codec
Format profile : LC
Codec ID : 40
Duration : 3mn 16s
Bit rate mode : Variable
Bit rate : 126 Kbps
Channel(s) : 2 channels
Channel positions : Front: L R
Sampling rate : 44.1 KHz
Compression mode : Lossy
Stream size : 2.94 MiB (5%)
Encoded date : UTC 2014-03-07 11:17:40
Tagged date : UTC 2014-03-07 11:17:40
Shared By Sbyky

Related music:
Justin Timberlake - Not A Bad Thing 1080p Music Video download Justin Timberlake - Not A Bad Thing 1080p Music Video
Video
English
111.7 MB
4.3
/images/5/7/justin-timberlake-not-a-bad-thing-1080p-music-video-.jpg
Sevyn Streeter Ft Kid Ink - nEXt 1080p Music Video download Sevyn Streeter Ft Kid Ink - nEXt 1080p Music Video
Video
English
93.7 MB
4.4
/images/5/4/sevyn-streeter-ft-kid-ink-next-1080p-music-video-.jpg
Lily Allen - Air Balloon 1080p Music Video download Lily Allen - Air Balloon 1080p Music Video
Video
English
110.7 MB
4.9
/images/5/0/lily-allen-air-balloon-1080p-music-video-.jpg
Charli XCX - Boom Clap 1080p Music Video download Charli XCX - Boom Clap 1080p Music Video
Video
English
57.6 MB
4.9
/images/5/3/charli-xcx-boom-clap-1080p-music-video-.jpg
One Direction - You & I 1080p Music Video download One Direction - You & I 1080p Music Video
Video
English
111.1 MB
4.5
/images/5/5/one-direction-you-26-i-1080p-music-video-.jpg
Nina Nesbitt - Selfies 1080p Music Video download Nina Nesbitt - Selfies 1080p Music Video
Video
English
56.0 MB
4.4
/images/5/3/nina-nesbitt-selfies-1080p-music-video-.jpg
Karmin - I Want It All 1080p Music Video download Karmin - I Want It All 1080p Music Video
Video
English
85.2 MB
4.6
/images/5/4/karmin-i-want-it-all-1080p-music-video-.jpg
Shakira - Empire 1080p Music Video download Shakira - Empire 1080p Music Video
Video
English
94.2 MB
4.1
/images/5/0/shakira-empire-1080p-music-video-.jpg
One Direction - Midnight Memories 1080p Music Video download One Direction - Midnight Memories 1080p Music Video
Video
English
93.9 MB
4.4
/images/5/6/one-direction-midnight-memories-1080p-music-video-.jpg
Alizée - Blonde 1080p Music Video download Alizée - Blonde 1080p Music Video
Video
French
86.3 MB
4.3
/images/5/6/alizc3a9e-blonde-1080p-music-video-.jpg