Files 42316
» » INNA Ft Yandel - In Your Eyes 720p Music Video
Language: English
Size: 60.8 MB
Votes: 689
Downloaded: 6
Category: Video
Format: MP3, FLAC
4.4

File list

  • INNA Ft. Yandel - In Your Eyes [Music Video] 720p [Sbyky].MP4 (60.8 MB)

Steve Mac, Ina Wroldsen. Top Hits 2019 - Best English Music Playlist 2020 - Rihanna, Ed Sheeran, Shawn Mendes, Maroon 5 - Продолжительность: 1:20:20 Magic Boxx Recommended for you.

50+ видео Воспроизвести все Микс – INNA feat Yandel In Your Eyes Official . Страна: США. Безопасный режим: выкл.

50+ видео Воспроизвести все Микс – INNA feat Yandel In Your Eyes Official Music Videohd720YouTube. 50+ видео Воспроизвести все Жизнерадостная поп-музыкаYouTube Music. Komodo - (I Just) Died In Your Arms - Продолжительность: 4:17 Komodo Recommended for you. 4:17.

Full HD free download INNA feat. Yandel - In Your Eyes 1080p 2013 Скачать видео. Клип Burak Yeter f. elaney Jane – Reckless Music Video. Hi-Rez – Pornhub (Unsensored) Music Video. 2013 HD Music Videos Inna Modern Pop Romania.


General
Complete name : INNA Ft. Yandel - In Your Eyes [Music Video] 720p [Sbyky].MP4
Format : MPEG-4
Format profile : Base Media / Version 2
Codec ID : mp42
File size : 60.8 MiB
Duration : 3mn 15s
Overall bit rate mode : Variable
Overall bit rate : 2 612 Kbps
Encoded date : UTC 2013-10-15 07:05:42
Tagged date : UTC 2013-10-15 07:05:42
Video
ID : 1
Format : AVC
Format/Info : Advanced Video Codec
Format profile : [email protected]
Format settings, CABAC : Yes
Format settings, ReFrames : 1 frame
Codec ID : avc1
Codec ID/Info : Advanced Video Coding
Duration : 3mn 15s
Bit rate : 2 418 Kbps
Maximum bit rate : 13.3 Mbps
Width : 1 280 pixels
Height : 720 pixels
Display aspect ratio : 16:9
Frame rate mode : Constant
Frame rate : 25.000 fps
Color space : YUV
Chroma subsampling : 4:2:0
Bit depth : 8 bits
Scan type : Progressive
Bits/(Pixel*Frame) : 0.105
Stream size : 56.3 MiB (93%)
Tagged date : UTC 2013-10-15 07:05:46
Audio
ID : 2
Format : AAC
Format/Info : Advanced Audio Codec
Format profile : LC
Codec ID : 40
Duration : 3mn 15s
Bit rate mode : Variable
Bit rate : 192 Kbps
Maximum bit rate : 203 Kbps
Channel(s) : 2 channels
Channel positions : Front: L R
Sampling rate : 44.1 KHz
Compression mode : Lossy
Stream size : 4.47 MiB (7%)
Title : IsoMedia File Produced by Google, 5-11-2011
Encoded date : UTC 2013-10-15 07:05:44
Tagged date : UTC 2013-10-15 07:05:46
Shared By Sbyky

Related music:
INNA - Wow 1080p Music Video download INNA - Wow 1080p Music Video
Video
English
152.3 MB
4.0
/images/noimage.jpg
John Legend - All Of Me 720p Music Video download John Legend - All Of Me 720p Music Video
Video
English
62.7 MB
4.1
/images/5/4/john-legend-all-of-me-720p-music-video-.jpg
Wisin & Yandel Ft Chris Brown, T-Pain - Algo Me Gusta De Ti 720p Music Video download Wisin & Yandel Ft Chris Brown, T-Pain - Algo Me Gusta De Ti 720p Music Video
Video
English
104.9 MB
4.6
/images/5/7/wisin-26-yandel-ft-chris-brown2c-t-pain-algo-me-gusta-de-ti-720p-music-video-.jpg
Stromae - Papaoutai 720p Music Video download Stromae - Papaoutai 720p Music Video
Video
French
41.8 MB
4.6
/images/5/0/stromae-papaoutai-720p-music-video-.jpg
Ke$ha - Dirty Love 720p Music Video download Ke$ha - Dirty Love 720p Music Video
Video
English
77.0 MB
4.1
/images/5/7/ke24ha-dirty-love-720p-music-video-.jpg
Little Mix - Little Me 720p Music Video download Little Mix - Little Me 720p Music Video
Video
English
37.9 MB
4.1
/images/5/5/little-mix-little-me-720p-music-video-.jpg
INNA Ft Juan Magan - Un Momento 720p Music Video download INNA Ft Juan Magan - Un Momento 720p Music Video
Video
English
73.1 MB
4.0
/images/5/9/inna-ft-juan-magan-un-momento-720p-music-video-.jpg