Files 42316
» » T I Ft B o B, Problem & Trae Tha Truth - Problems 720p Music Video
Language: English
Size: 71.3 MB
Votes: 233
Downloaded: 25
Category: Video
Format: MP3, FLAC
4.4

File list

  • T.I. Ft. B.o.B, Problem & Trae Tha Truth - Problems [Music Video] 720p [Sbyky].mp4 (71.3 MB)

Trae Tha Truth - Old School (Official Music Video) f. Problems - Hustle Gang (Official Video) .

Trae Tha Truth - Old School (Official Music Video) f.

performing Problems (feat. Problem, Trae Tha Truth). 2013 Hustle Gang Music. retrouvez l'émission M-Self Show sur webadubradio. com spécial hip hop US rap FR & Reggae-Dancehall mixée par DJ Blunt & DJ Diezo

performing Problems (feat. com spécial hip hop US rap FR & Reggae-Dancehall mixée par DJ Blunt & DJ Diezo. pour toutes les infos sur tes artistes préférés et les new challengers Категория.

Problem, Young Dro, Trae Tha Truth, . Trae Tha Truth, Shad Da God, Problem, . All Gas, Hustle Gang feat. Problem, Young Dro, Trae Tha Truth, . Check, а также рингтоны на звонок и все новые треки.

Trae Tha Truth, Shad Da God, Problem, . Check и другие популярные треки и рингтоны. Problem –I Got This feat UZ, Trae Tha Truth &. :18. Lil Boss, Problem –Yeah Hoe. 5:32. Doe B –All Gas Feat . Problem, Shad Da God &. :32. Young Dro And Trae Tha Truth) Feat. Check Feat Problem, Dro & Trae Tha Truth. :59. Trae –I m just trying to live my life.

Problem, Trae Tha Truth). 2,013 Hustle Gang Music. B, Problem, Trae Tha Truth.

B, Problem, Trae Tha Truth, Young Dro - Problems можно онлайн на нашем портале MuZu.

Слушать и скачать песню Hustle Gang, . B, Problem, Trae Tha Truth, Young Dro - Problems можно онлайн на нашем портале MuZu. me Текст и видео клип на песню Problems. P I green light my get trip Six niggas hoppin' out one whip Go there re-constructin your whole whip I’m a down shore baller, ATL stunner Bitch leave me I’mma take everything from 'er Please try a nigga where I’m from with that drama So we can fire pistols at yo goddamn mama Let me find out


General
Complete name : T.I. Ft. B.o.B, Problem & Trae Tha Truth - Problems [Music Video] 720p [Sbyky].mp4
Format : MPEG-4
Format profile : Base Media / Version 2
Codec ID : mp42
File size : 71.3 MiB
Duration : 5mn 6s
Overall bit rate mode : Variable
Overall bit rate : 1 951 Kbps
Encoded date : UTC 2013-07-10 17:31:12
Tagged date : UTC 2013-07-10 17:31:12
Video
ID : 1
Format : AVC
Format/Info : Advanced Video Codec
Format profile : [email protected]
Format settings, CABAC : Yes
Format settings, ReFrames : 1 frame
Codec ID : avc1
Codec ID/Info : Advanced Video Coding
Duration : 5mn 6s
Bit rate : 1 757 Kbps
Maximum bit rate : 4 264 Kbps
Width : 1 280 pixels
Height : 720 pixels
Display aspect ratio : 16:9
Frame rate mode : Constant
Frame rate : 23.976 fps
Color space : YUV
Chroma subsampling : 4:2:0
Bit depth : 8 bits
Scan type : Progressive
Bits/(Pixel*Frame) : 0.080
Stream size : 64.2 MiB (90%)
Tagged date : UTC 2013-07-10 17:31:19
Audio
ID : 2
Format : AAC
Format/Info : Advanced Audio Codec
Format profile : LC
Codec ID : 40
Duration : 5mn 6s
Bit rate mode : Variable
Bit rate : 192 Kbps
Maximum bit rate : 201 Kbps
Channel(s) : 2 channels
Channel positions : Front: L R
Sampling rate : 44.1 KHz
Compression mode : Lossy
Stream size : 7.02 MiB (10%)
Title : IsoMedia File Produced by Google, 5-11-2011
Encoded date : UTC 2013-07-10 17:31:16
Tagged date : UTC 2013-07-10 17:31:19
Shared By Sbyky

Related music:
Emily Kinney - Kids 720p Music Video download Emily Kinney - Kids 720p Music Video
Video
English
60.5 MB
4.2
/images/5/3/emily-kinney-kids-720p-music-video-.jpg
Cher Lloyd Ft T I - I Wish 720p Music Video download Cher Lloyd Ft T I - I Wish 720p Music Video
Video
English
60.6 MB
4.3
/images/5/1/cher-lloyd-ft-t-i-i-wish-720p-music-video-.jpg
John Legend - All Of Me 720p Music Video download John Legend - All Of Me 720p Music Video
Video
English
62.7 MB
4.1
/images/5/4/john-legend-all-of-me-720p-music-video-.jpg
Taylor Swift - We Are Never Ever Getting Back Together 720p Music Video download Taylor Swift - We Are Never Ever Getting Back Together 720p Music Video
Video
English
61.4 MB
4.0
/images/5/0/taylor-swift-we-are-never-ever-getting-back-together-720p-music-video-.jpg
J-Hen - Sex Instructor 720p Music Video download J-Hen - Sex Instructor 720p Music Video
Video
English
36.7 MB
4.7
/images/5/3/j-hen-sex-instructor-720p-music-video-.jpg
Stromae - Papaoutai 720p Music Video download Stromae - Papaoutai 720p Music Video
Video
French
41.8 MB
4.6
/images/5/0/stromae-papaoutai-720p-music-video-.jpg
Ke$ha - Dirty Love 720p Music Video download Ke$ha - Dirty Love 720p Music Video
Video
English
77.0 MB
4.1
/images/5/7/ke24ha-dirty-love-720p-music-video-.jpg
J Cole - Work Out 720p Music Video download J Cole - Work Out 720p Music Video
Video
English
79.9 MB
4.2
/images/5/9/j-cole-work-out-720p-music-video-.jpg
Little Mix - Little Me 720p Music Video download Little Mix - Little Me 720p Music Video
Video
English
37.9 MB
4.1
/images/5/5/little-mix-little-me-720p-music-video-.jpg