Files 42316
» » Karmin - I Want It All 1080p Music Video
Language: English
Size: 85.2 MB
Votes: 069
Downloaded: 45
Category: Video
Format: MP3, FLAC
4.6

File list

  • Karmin - I Want It All [Music Video] 1080p [Sbyky].MP4 (85.2 MB)

I Want It All" is a song by American music duo Karmin. It was released on January 28, 2014, as the second single from their debut studio album, Pulses (2014).

I Want It All" is a song by American music duo Karmin. The single was written by group members Amy Heidemann and Nick Noonan, and songwriter Ester Dean. I Want It All" is a disco song. It is most notable for Heidemann's lack of rapping, which is a common trait in most of their other work.

I Want It All. Karmin. Music by: Ester Dean, Nick Noonan, Amy Heidemann. EXTRA SONG STATISTICS FOR - Karmin. Lyrics by: Nick Noonan, Ester Dean, Amy Heidemann. C): Sony Music Entertainment. P): Sony Music Entertainment. Format: Pop. Parameters: 15/00:03:46/C.

After some delays, Karmin has finally released the official music video for I Want It All, the second single off of their new album, Pulses. But now we can finally say the official music video for I Want It All is here!

After some delays, Karmin has finally released the official music video for I Want It All, the second single off of their new album, Pulses.

Karmin - I Want It All. Клипы. Woof - still snørkeling feat.

File: Karmin - I Want it All (Live on Queen Latifah 03-26-2014) 1080i.

Forums Video Mania HD Live Performances . HDTV Karmin - I Want it All (Live on Seth Meyers & Queen Latifah March 2014) HDTV 1080i. Discussion in 'HD Live Performances' started by V1de0Luvr, Mar 29, 2014. File: Karmin - I Want it All (Live on Queen Latifah 03-26-2014) 1080i.

Karmin - I Want It All (boyband cover by Dot SE). ✪ Watch Karmin Perform "I Want It All" on The Queen Latifah . The music video and/or lyric video was released on YouTube on the release date of the single, January 28, 2014

Karmin - I Want It All (boyband cover by Dot SE). ✪ Watch Karmin Perform "I Want It All" on The Queen Latifah Show. Karmin - I Want It All - (Official Instrumental). The music video and/or lyric video was released on YouTube on the release date of the single, January 28, 2014. According to Heidemann, the lyric video is something like the music video. We just shot the video," Amy said. We just threw up a lyric video which is actually the storyboard of the video. The duo got the idea from the storyboard and they wanted to show off their drawings in the video.


General
Complete name : Karmin - I Want It All [Music Video] 1080p [Sbyky].MP4
Format : MPEG-4
Format profile : Base Media
Codec ID : isom
File size : 85.2 MiB
Duration : 3mn 48s
Overall bit rate mode : Variable
Overall bit rate : 3 129 Kbps
Encoded date : UTC 2014-02-22 14:06:40
Tagged date : UTC 2014-02-22 14:06:40
Video
ID : 1
Format : AVC
Format/Info : Advanced Video Codec
Format profile : [email protected]
Format settings, CABAC : Yes
Format settings, ReFrames : 3 frames
Codec ID : avc1
Codec ID/Info : Advanced Video Coding
Duration : 3mn 48s
Duration_LastFrame : -41ms
Bit rate : 3 001 Kbps
Width : 1 920 pixels
Height : 1 080 pixels
Display aspect ratio : 16:9
Frame rate mode : Constant
Frame rate : 23.976 fps
Color space : YUV
Chroma subsampling : 4:2:0
Bit depth : 8 bits
Scan type : Progressive
Bits/(Pixel*Frame) : 0.060
Stream size : 81.7 MiB (96%)
Encoded date : UTC 2014-02-22 14:06:40
Tagged date : UTC 2014-02-22 14:06:40
Audio
ID : 2
Format : AAC
Format/Info : Advanced Audio Codec
Format profile : LC
Codec ID : 40
Duration : 3mn 48s
Bit rate mode : Variable
Bit rate : 126 Kbps
Channel(s) : 2 channels
Channel positions : Front: L R
Sampling rate : 44.1 KHz
Compression mode : Lossy
Stream size : 3.42 MiB (4%)
Encoded date : UTC 2014-02-22 14:05:36
Tagged date : UTC 2014-02-22 14:05:36
Shared By Sbyky

Related music:
Justin Timberlake - Not A Bad Thing 1080p Music Video download Justin Timberlake - Not A Bad Thing 1080p Music Video
Video
English
111.7 MB
4.3
/images/5/7/justin-timberlake-not-a-bad-thing-1080p-music-video-.jpg
Daddy Yankee - La Nueva Y La Ex 1080p Music Video download Daddy Yankee - La Nueva Y La Ex 1080p Music Video
Album
Spanish
63.0 MB
4.8
/images/5/7/daddy-yankee-la-nueva-y-la-ex-1080p-music-video-.jpg
Sevyn Streeter Ft Kid Ink - nEXt 1080p Music Video download Sevyn Streeter Ft Kid Ink - nEXt 1080p Music Video
Video
English
93.7 MB
4.4
/images/5/4/sevyn-streeter-ft-kid-ink-next-1080p-music-video-.jpg
Ashanti Ft Rick Ross - I Got It 1080p Music Video download Ashanti Ft Rick Ross - I Got It 1080p Music Video
Video
English
75.1 MB
4.1
/images/5/6/ashanti-ft-rick-ross-i-got-it-1080p-music-video-.jpg
One Direction - You & I 1080p Music Video download One Direction - You & I 1080p Music Video
Video
English
111.1 MB
4.5
/images/5/5/one-direction-you-26-i-1080p-music-video-.jpg
The Pretty Reckless - Heaven Knows 1080p Music Video download The Pretty Reckless - Heaven Knows 1080p Music Video
Video
English
53.7 MB
4.2
/images/5/5/the-pretty-reckless-heaven-knows-1080p-music-video-.jpg
Coldplay - Magic 1080p Music Video download Coldplay - Magic 1080p Music Video
Video
English
153.0 MB
4.9
/images/5/5/coldplay-magic-1080p-music-video-.jpg
Shakira - Empire 1080p Music Video download Shakira - Empire 1080p Music Video
Video
English
94.2 MB
4.1
/images/5/0/shakira-empire-1080p-music-video-.jpg
Alizée - Blonde 1080p Music Video download Alizée - Blonde 1080p Music Video
Video
French
86.3 MB
4.3
/images/5/6/alizc3a9e-blonde-1080p-music-video-.jpg
Fall Out Boy Ft Courtney Love - Rat A Tat 1080p Music Video download Fall Out Boy Ft Courtney Love - Rat A Tat 1080p Music Video
Video
English
127.4 MB
4.2
/images/5/0/fall-out-boy-ft-courtney-love-rat-a-tat-1080p-music-video-.jpg