Files 42316
» » ZAYN - LIKE I WOULD 1080p mp4
Language: English
Size: 102.9 MB
Votes: 268
Downloaded: 9
Category: Video
Format: MP3, FLAC
4.5

File list

  • ZAYN - LIKE I WOULD [P-DawG].mp4 (102.9 MB)

Zayn - Like I Would (Audio).

ZAYN - LIKE I WOULD 1080p-hd. Hidden Content: You must reply before you can see the hidden data contained here. Amy Winehouse, May 10, 2016.

Zayn - Like I Would (Master) HD 1080. ZAYN - Like I Would (Master ProRes) HD 1080.

Produced by XyZ. Album Mind of Mine. The third song to be released from Zayn’s debut solo album Mind of Mine, LIKE I WOULD is an upbeat, dancefloor-ready R&B jam. Hey what's up? It's been a while Talking 'bout it's not my style Thought I'd see what's up, while I'm lighting up It's cold-hearted, cold-hearted Know it's late, but I'm so wired Saw your face and got inspired Guess you let it go, now you're good to go It's cold-hearted, cold-hearted. Oh, oh, it's probably gonna sound wrong Promise it won't last long Oh, oh, if we can never go back Thought you'd like to know that.

Video: MPEG4 Video (H264) 1920x1080 25fps 1. Mbps Audio: AAC 48000Hz stereo 317 Kbps. Category: MasterRip Views: 1545 Added by: Peter Tags: Поиск.

ZAYN's debut album 'Mind Of Mine' out no. Hindi Hot Short Video.

Hindi Hot Short Video. Download MP3. Related Download

Zayn sing like a poup i can do much better.

it/MindOfMine?IQid yt. Zayn sing like a poup i can do much better.

Длительность: 3 мин и 26 сек. Размер: . 2 MB. Прослушиваний: 6. M

Длительность: 3 мин и 26 сек. M. Скачать mp3. Скачать видео. Dusk Till Dawn Zayn Ft Sia Lyrics. Wrong Zayn Ft Kehlani Lyrics. Sam Smith How Do You Sleep Official Video.

[P-DawG]

Cover:-

Screens:-
https://extraimage.net/image/ah0r
General Info:-

General

Complete name : ZAYN - LIKE I WOULD [P-DawG].mp4
Format : MPEG-4
Format profile : Base Media
Codec ID : isom
File size : 103 MiB
Duration : 3mn 26s
Overall bit rate : 4 191 Kbps
Movie name : LIKE I WOULD [P-DawG]
Album : Mind of Mine
Track name/Position : 17
Performer : ZAYN
Genre : Pop
Recorded date : 2016
Cover : Yes
Video
ID : 1
Format : AVC
Format/Info : Advanced Video Codec
Format profile : [email protected]
Format settings, CABAC : Yes
Format settings, ReFrames : 2 frames
Format settings, GOP : M=3, N=37
Codec ID : avc1
Codec ID/Info : Advanced Video Coding
Duration : 3mn 25s
Bit rate mode : Variable
Bit rate : 4 058 Kbps
Width : 1 920 pixels
Height : 1 080 pixels
Display aspect ratio : 16:9
Frame rate mode : Constant
Frame rate : 23.976 fps
Color space : YUV
Chroma subsampling : 4:2:0
Bit depth : 8 bits
Scan type : Progressive
Bits/(Pixel*Frame) : 0.082
Stream size : 99.6 MiB (97%)
Audio
ID : 2
Format : AAC
Format/Info : Advanced Audio Codec
Format profile : LC
Codec ID : 40
Duration : 3mn 26s
Bit rate mode : Constant
Bit rate : 126 Kbps
Channel(s) : 2 channels
Channel positions : Front: L R
Sampling rate : 44.1 KHz
Compression mode : Lossy
Stream size : 3.08 MiB (3%)

Related music:
Wiz Khalifa - Elevated 1080p mp4 download Wiz Khalifa - Elevated 1080p mp4
Video
English
82.6 MB
4.0
/images/5/0/wiz-khalifa-elevated-1080p-mp4.jpg
The Weeknd - The Hills 1080p mp4 download The Weeknd - The Hills 1080p mp4
Video
English
84.1 MB
4.7
/images/5/0/the-weeknd-the-hills-1080p-mp4.jpg
Avril Lavigne - Fly 1080p mp4 for Special Olympics download Avril Lavigne - Fly 1080p mp4 for Special Olympics
Video
English
86.9 MB
4.4
/images/5/8/avril-lavigne-fly-1080p-mp4-for-special-olympics.jpg
Ciara - I Bet 1080p mp4 download Ciara - I Bet 1080p mp4
Video
English
104.1 MB
4.3
/images/5/6/ciara-i-bet-1080p-mp4.jpg
Adele - Hello 1080p mp4 download Adele - Hello 1080p mp4
Video
English
103.8 MB
4.7
/images/5/9/adele-hello-1080p-mp4.jpg
Machine Gun Kelly - Alpha Omega 1080p mp4 download Machine Gun Kelly - Alpha Omega 1080p mp4
Video
English
50.6 MB
4.6
/images/5/3/machine-gun-kelly-alpha-omega-1080p-mp4.jpg
Chris Brown, Tyga - Ayo 1080p download Chris Brown, Tyga - Ayo 1080p
Video
English
176.0 MB
4.6
/images/noimage.jpg
Taylor Swift - Bad Blood ft Kendrick Lamar 1080p mp4 download Taylor Swift - Bad Blood ft Kendrick Lamar 1080p mp4
Video
English
86.8 MB
4.7
/images/5/0/taylor-swift-bad-blood-ft-kendrick-lamar-1080p-mp4.jpg