Files 42316
» » Daddy Yankee - La Nueva y La Ex HD 720p x264 AAC Sp-Subs mp4 GWC
Language: English
Size: 41.2 MB
Votes: 395
Downloaded: 20
Category: Video
Format: MP3, FLAC
4.2

File list

  • Daddy Yankee - La Nueva y La Ex HD 720p x264 AAC Sp-Subs [GWC].mp4 (41.2 MB)

title: Victorious Beggin on Your Knees music video 2s, title: Fables de La Fontaine.

ch 64-AAC-Sp-Subs-mp4 Music. title: Victorious Beggin on Your Knees music video 2s, title: Fables de La Fontaine.

Files: Daddy Yankee - La Nueva y La Ex HD 720p x264 AAC Sp-Subs. Feel free to leave one

Disco Latino - La Nueva y la Ex Latin Hits 2015 Karaoke, 2016 03:20. Agrupacion LatinHits - La Nueva y la Ex Instrumental Karaoke Series: Daddy Yankee, Vol. 1, 2014 03:35.

Disco Latino - La Nueva y la Ex Latin Hits 2015 Karaoke, 2016 03:20. Extra Latino - La Nueva y la Ex Latin Hits 2015 Karaoke, 2016 03:20. Karaokemedia - La Nueva y la Ex La Nueva y la Ex, 2013 06:44. Karaoke Hits Band - La Nueva y la Ex (Con el Estilo de Daddy Yankee) Various Karaoke, 2014 03:22. Brava HitMakers - La Nueva y la Ex La Nueva y la Ex - Tribute To Daddy Yankee, 2012 03:16.

Download MP3. MP3 320Kbps, . 2 Mb MP3 128Kbps, . 1 Mb MP3 64Kbps, . Mb. Daddy Yankee.

La Nueva y La Ex". None. "Guatauba 2000 - Nicky Jam, Las Guanabanas, Daddy Yankee" (in Spanish). "La Rompe Carros - Daddy Yankee " (in Spanish).

La Nueva y La Ex". Retrieved November 22, 2017. "Daddy Yankee - Yo Se Que a Ti Te Gusta (Video) " (in Spanish). Retrieved July 16, 2017. Minute 0:09 – "Director: José Javy Ferrer". "Daddy Yankee estrena vídeo de "La Nueva y La Ex"" (in Spanish).

Like it? Listen Daddy Yankee - La Nueva y la E. 3 best Daddy Yankee tracks.

Download Daddy Yankee - La Nueva y la Ex Stunningly! 1 people think this track is stunning! Back. 3 best mp3 from Power Sound Presenta Exitos 2014. Contra la Pared - Farruko, Wise, Zion & Lennox Remix. Travesuras - Nicky Jam. Listen to Power Sound Presenta Exitos 2014. Ginza - Daddy Yankee, Farruko, J Balvin, Nicky Jam, Yandel, Zion Remix Ginza, 2016. Shaky Shaky - Daddy Yankee, Nicky Jam, Plan B Remix Shaky Shaky, 2016

Daddy Yankee - La Nueva Y La Ex (King Daddy). Artist: Daddy Yankee Song: La Nueva Y La Ex Album: IPAUTA (2013).

Daddy Yankee - La Nueva Y La Ex (King Daddy). Subido el 2013-10-19 04:08:27 Por OdECk Report abuse.

Daddy Yankee - La Nueva y La Ex HD 720p x264 AAC Sp-Subs [GWC]





FOLLOW ON FACEBOOK :





General
Format : MPEG-4
Format profile : Base Media
File size : 41.2 MiB
Duration : 4mn 0s
Overall bit rate mode : Variable
Overall bit rate : 1 440 Kbps
Video
Format : AVC
Format profile : [email protected]
Format settings, CABAC : Yes
Duration : 4mn 0s
Bit rate : 1 351 Kbps
Maximum bit rate : 2 904 Kbps
Width : 1 280 pixels
Height : 720 pixels
Display aspect ratio : 16:9
Frame rate mode : Variable
Stream size : 38.7 MiB (94%)
Title : Daddy Yankee - La Nueva y La Ex HD 720p x264 AAC Sp-Subs [GWC]
Audio
Format : AAC
Format profile : LC
Duration : 4mn 0s
Bit rate mode : Variable
Channel(s) : 2 channels
Sampling rate : 48.0 KHz
Stream size : 2.46 MiB (6%)
Language : Spanish
Text
Format : Timed Text
Duration : 3mn 59s
Title : Spanish Subtitle by [GWC]
Language : Spanish

Related music:
One Direction - You & I 720p x264 AAC E-Subs mp4 GWC 2014 download One Direction - You & I 720p x264 AAC E-Subs mp4 GWC 2014
Video
English
55.2 MB
4.2
/images/5/6/one-direction-you-26-i-720p-x264-aac-e-subs-mp4-gwc-2014.jpg
Backstreet Boys - Show 'Em What You're Made Of 2013 720p x264 AAC E-Subs mp4 GWC download Backstreet Boys - Show 'Em What You're Made Of 2013 720p x264 AAC E-Subs mp4 GWC
Video
English
33.1 MB
4.2
/images/5/3/backstreet-boys-show-27em-what-you27re-made-of-2013-720p-x264-aac-e-subs-mp4-gwc.jpg
Jason Derulo -Trumpets 720p x264 AAC E-Subs mp4 GWC download Jason Derulo -Trumpets 720p x264 AAC E-Subs mp4 GWC
Video
English
53.4 MB
4.5
/images/5/3/jason-derulo-trumpets-720p-x264-aac-e-subs-mp4-gwc.jpg
Mariah Carey - You're Mine 2014 HD 720p x264 AAC E-Subs mp4 GWC Eternal download Mariah Carey - You're Mine 2014 HD 720p x264 AAC E-Subs mp4 GWC Eternal
Video
English
50.9 MB
4.0
/images/5/7/mariah-carey-you27re-mine-2014-hd-720p-x264-aac-e-subs-mp4-gwc-eternal.jpg
Rihanna - Pour It Up 720p x264 AAC E-Subs mp4 GWC download Rihanna - Pour It Up 720p x264 AAC E-Subs mp4 GWC
Video
English
52.5 MB
4.1
/images/5/5/rihanna-pour-it-up-720p-x264-aac-e-subs-mp4-gwc.jpg
Priyanka Chopra - I Cant Make You Love Me 720p x264 MP3 E-Subs mp4 GWC 2014 download Priyanka Chopra - I Cant Make You Love Me 720p x264 MP3 E-Subs mp4 GWC 2014
Video
English
62.6 MB
4.7
/images/5/1/priyanka-chopra-i-cant-make-you-love-me-720p-x264-mp3-e-subs-mp4-gwc-2014.jpg
Katy Perry ft Juicy J - Dark Horse 2014 HD 720p x264 AAC E-Subs mp4 GWC download Katy Perry ft Juicy J - Dark Horse 2014 HD 720p x264 AAC E-Subs mp4 GWC
Video
English
53.9 MB
4.5
/images/5/8/katy-perry-ft-juicy-j-dark-horse-2014-hd-720p-x264-aac-e-subs-mp4-gwc.jpg
Daddy Yankee - La Nueva Y La Ex 720p Music Video download Daddy Yankee - La Nueva Y La Ex 720p Music Video
Video
Spanish
33.2 MB
4.6
/images/5/5/daddy-yankee-la-nueva-y-la-ex-720p-music-video-.jpg
Britney Spears - Perfume 720p x264 AAC E-Subs mp4 GWC download Britney Spears - Perfume 720p x264 AAC E-Subs mp4 GWC
Video
English
34.8 MB
4.8
/images/5/2/britney-spears-perfume-720p-x264-aac-e-subs-mp4-gwc.jpg