Files 42316
» » Jessica Sanchez Ft Ne-Yo - Tonight 1080p Music Video
Language: English
Size: 173.6 MB
Votes: 715
Downloaded: 44
Category: Video
Format: MP3, FLAC
4.0

File list

  • Jessica Sanchez Ft. Ne-Yo - Tonight [Music Video] 1080p [Sbyky].mp4 (173.6 MB)

Jessica Sanchez feat

Jessica Sanchez feat.

Ne-Yo - Tonight скачать mp3 в хорошем качестве, либо слушайте . Jessica Sanchez – Tonight feat Ne-Yo v. om/nomuzlife. Ne-Yo – Tonight (Music by For Se7en).

Ne-Yo - Tonight скачать mp3 в хорошем качестве, либо слушайте песню Jessica Sanchez feat. Ne-Yo - Tonight, Jessica Sanchez ft. Ne-Yo - Tonight, а также рингтоны на звонок и все новые треки. Jessica Sanchez feat. JESSICA SANCHEZ&NE-YO – TONIGHT (cafe GLAMOUR,Gagarina. Ne-Yo – Tonight 2013Ks.

Music video by Jessica Sanchez performing Tonight (American Idol). C) 2013 Interscope Records. Jhem V. New official music video of Jessica Sanchez - This Love

Music video by Jessica Sanchez performing Tonight (American Idol). at 2:21 she forgot the words. New official music video of Jessica Sanchez - This Love  4 years назад. what happen after this, she released her album, why is there no followup? 4 years назад.

Artist: Jessica Sanchez. it/MeYouTheMusic Music video by Jessica Sanchez performing Tonight. Jessica Sanchez quotes

Artist: Jessica Sanchez. Album: Me, You & the Music, 2013. Jessica Sanchez quotes. I have a picture with Obama in my house, and I freak out every time I see it. I'm like, 'What the heck?

HomeTV ShowsAmerican IdolJessica Sanchez feat. Ne-Yo – Tonight Music Video Premiere (Plus Album Snippets).

HomeTV ShowsAmerican IdolJessica Sanchez feat. 03/21/2013 mj santilli American Idol, Jessica Sanchez 98. Hot on the live premiere of her new single Tonight on the American Idol results show, Jessica Sanchez debuts the music video, featuring Ne-Yo. The scene is a non-stop party, and Jessica and Ne-Yo dance the night away. Jessica Sanchez and Ne-Yo American Idol debut Tonight VIDEO.

Music video by Jessica Sanchez performing Tonight. Jessica sanchez who has a great voice,undeniable talent only Got 13M?? Kidding me??Nicki,Miley,Selina, etc, Got Millions of views, jessica cant even had chance to touch a have half o. JESSICA DESERVES TOO!

Music video by Jessica Sanchez performing Tonight. JESSICA DESERVES TOO! 4 years назад.

Tags: Jessica Sanchez Feat. Ne-Yo - Tonight-HD-1080p.


General
Complete name : Jessica Sanchez Ft. Ne-Yo - Tonight [Music Video] 1080p [Sbyky].mp4
Format : MPEG-4
Format profile : Base Media / Version 2
Codec ID : mp42
File size : 174 MiB
Duration : 4mn 0s
Overall bit rate mode : Variable
Overall bit rate : 6 061 Kbps
Encoded date : UTC 2013-04-08 03:04:51
Tagged date : UTC 2013-04-08 03:04:51
Video
ID : 1
Format : AVC
Format/Info : Advanced Video Codec
Format profile : [email protected]
Format settings, CABAC : Yes
Format settings, ReFrames : 1 frame
Codec ID : avc1
Codec ID/Info : Advanced Video Coding
Duration : 4mn 0s
Bit rate : 5 867 Kbps
Maximum bit rate : 11.3 Mbps
Width : 1 920 pixels
Height : 1 080 pixels
Display aspect ratio : 16:9
Frame rate mode : Constant
Frame rate : 23.976 fps
Color space : YUV
Chroma subsampling : 4:2:0
Bit depth : 8 bits
Scan type : Progressive
Bits/(Pixel*Frame) : 0.118
Stream size : 168 MiB (97%)
Tagged date : UTC 2013-04-08 03:05:00
Audio
ID : 2
Format : AAC
Format/Info : Advanced Audio Codec
Format profile : LC
Codec ID : 40
Duration : 4mn 0s
Bit rate mode : Variable
Bit rate : 192 Kbps
Maximum bit rate : 202 Kbps
Channel(s) : 2 channels
Channel positions : Front: L R
Sampling rate : 44.1 KHz
Compression mode : Lossy
Stream size : 5.50 MiB (3%)
Title : IsoMedia File Produced by Google, 5-11-2011
Encoded date : UTC 2013-04-08 03:04:59
Tagged date : UTC 2013-04-08 03:05:00
Shared By Sbyky

Related music:
PSY - Gentleman 1080p Music Video download PSY - Gentleman 1080p Music Video
Video
English
145.3 MB
4.7
/images/5/2/psy-gentleman-1080p-music-video-.jpg
J Cole - Work Out 1080p Music Video download J Cole - Work Out 1080p Music Video
Video
English
153.3 MB
4.1
/images/5/3/j-cole-work-out-1080p-music-video-.jpg
Little Mix - Little Me 1080p Music Video download Little Mix - Little Me 1080p Music Video
Video
English
74.7 MB
4.9
/images/5/1/little-mix-little-me-1080p-music-video-.jpg
INNA - Wow 1080p Music Video download INNA - Wow 1080p Music Video
Video
English
152.3 MB
4.0
/images/noimage.jpg
Wiz Khalifa Ft Akon - Let It Go 1080p Music Video download Wiz Khalifa Ft Akon - Let It Go 1080p Music Video
Video
English
117.5 MB
4.2
/images/5/6/wiz-khalifa-ft-akon-let-it-go-1080p-music-video-.jpg
Stromae - Papaoutai 1080p Music Video download Stromae - Papaoutai 1080p Music Video
Video
French
83.4 MB
4.5
/images/5/3/stromae-papaoutai-1080p-music-video-.jpg
Future - Honest 1080p Music Video download Future - Honest 1080p Music Video
Video
English
100.8 MB
4.3
/images/5/8/future-honest-1080p-music-video-.jpg
Thomas Rhett - It Goes Like This 1080p Music Video download Thomas Rhett - It Goes Like This 1080p Music Video
Video
English
116.3 MB
4.0
/images/5/2/thomas-rhett-it-goes-like-this-1080p-music-video-.jpg
Passenger - Let Her Go 1080p Music Video download Passenger - Let Her Go 1080p Music Video
Video
English
86.7 MB
4.2
/images/5/0/passenger-let-her-go-1080p-music-video-.jpg