Files 42316
» » Beyoncé - XO 720p Music Video
Language: English
Size: 58.3 MB
Votes: 308
Downloaded: 89
Category: Video
Format: MP3, FLAC
4.2

File list

  • Beyoncé - XO [Music Video] 720p [Sbyky].MP4 (58.3 MB)

Box Set includes : 2 New Tracks. 4 New Remixes 2015 Mini Calendar.

rnb pop female vocalists soul. Здесь вы можете послушать онлайн Beyoncé - 14. XO/Halo (Beyonce Made in America 2015) AUDIO HD и другие mp3 песни этого артиста и похожие треки жанров rnb, pop, female vocalists, soul. Музыка похожая на Beyoncé - 14. XO/Halo (Beyonce Made in America 2015) AUDIO HD. Название.

Клип Beyonce на песню XO из последнего альбома Beyonce (2013). Lizzo - Jerome (Live at the 2019 American Music Awards) 2. 1. Opeth - Universal Truth 2. The Temper Trap - Sweet Disposition (Blazy & Sighter Rmx) 2.

Beyoncé - XO. Moin djtv. Copy video URL. Copy video URL at current time.

Beyonce - XO (Official Video). Published on Sat, 14 Dec 2013. Beyonce - No Angel (Official Video). Mela By Mila Music Video. 6 years ago. 1436 views. 207180 views.

to is the largest czech cloud storage. Please, upgrade your browser, OS or both. Prosím, aktualizujte svůj prohlížeč, operační systém nebo obojí.


General
Complete name : Beyoncé - XO [Music Video] 720p [Sbyky].MP4
Format : MPEG-4
Format profile : Base Media
Codec ID : isom
File size : 58.3 MiB
Duration : 3mn 36s
Overall bit rate mode : Variable
Overall bit rate : 2 264 Kbps
Encoded date : UTC 2013-12-15 19:21:16
Tagged date : UTC 2013-12-15 19:21:16
Video
ID : 1
Format : AVC
Format/Info : Advanced Video Codec
Format profile : [email protected]
Format settings, CABAC : Yes
Format settings, ReFrames : 3 frames
Codec ID : avc1
Codec ID/Info : Advanced Video Coding
Duration : 3mn 35s
Duration_LastFrame : -41ms
Bit rate : 2 136 Kbps
Width : 1 280 pixels
Height : 720 pixels
Display aspect ratio : 16:9
Frame rate mode : Constant
Frame rate : 23.976 fps
Color space : YUV
Chroma subsampling : 4:2:0
Bit depth : 8 bits
Scan type : Progressive
Bits/(Pixel*Frame) : 0.097
Stream size : 55.0 MiB (94%)
Encoded date : UTC 2013-12-15 19:21:16
Tagged date : UTC 2013-12-15 19:21:16
Audio
ID : 2
Format : AAC
Format/Info : Advanced Audio Codec
Format profile : LC
Codec ID : 40
Duration : 3mn 36s
Bit rate mode : Variable
Bit rate : 126 Kbps
Channel(s) : 2 channels
Channel positions : Front: L R
Sampling rate : 44.1 KHz
Compression mode : Lossy
Delay relative to video : 42ms
Stream size : 3.23 MiB (6%)
Encoded date : UTC 2013-12-15 19:20:57
Tagged date : UTC 2013-12-15 19:20:57
Shared By Sbyky

Related music:
Britney Spears - Ooh La La 720p Music Video download Britney Spears - Ooh La La 720p Music Video
Video
English
66.7 MB
4.6
/images/5/2/britney-spears-ooh-la-la-720p-music-video-.jpg
Fall Out Boy - The Phoenix 720p Music Video download Fall Out Boy - The Phoenix 720p Music Video
Video
English
40.1 MB
4.1
/images/5/4/fall-out-boy-the-phoenix-720p-music-video-.jpg
Hot Chelle Rae - Hung Up 720p Music Video download Hot Chelle Rae - Hung Up 720p Music Video
Video
English
46.2 MB
4.5
/images/5/3/hot-chelle-rae-hung-up-720p-music-video-.jpg
Rich Homie Quan - Type Of Way 720p Music Video download Rich Homie Quan - Type Of Way 720p Music Video
Video
English
51.4 MB
4.3
/images/5/9/rich-homie-quan-type-of-way-720p-music-video-.jpg
Pitbull Ft Ke$ha - Timber 720p Music Video download Pitbull Ft Ke$ha - Timber 720p Music Video
Video
English
46.9 MB
4.3
/images/5/5/pitbull-ft-ke24ha-timber-720p-music-video-.jpg
Jessie J - Thunder 720p Music Video download Jessie J - Thunder 720p Music Video
Video
English
33.5 MB
4.4
/images/5/2/jessie-j-thunder-720p-music-video-.jpg
Little Mix - Little Me 720p Music Video download Little Mix - Little Me 720p Music Video
Video
English
37.9 MB
4.1
/images/5/5/little-mix-little-me-720p-music-video-.jpg
Justin Timberlake - TKO 720p Music Video download Justin Timberlake - TKO 720p Music Video
Video
English
78.9 MB
4.3
/images/5/1/justin-timberlake-tko-720p-music-video-.jpg