Files 42316
» » Wiz Khalifa Ft Akon - Let It Go 1080p Music Video
Language: English
Size: 117.5 MB
Votes: 266
Downloaded: 98
Category: Video
Format: MP3, FLAC
4.2

File list

  • Wiz Khalifa Ft. Akon - Let It Go [Music Video] 1080p [Sbyky].mp4 (117.5 MB)

Follow Wiz Khalifa and others on SoundCloud.

Follow Wiz Khalifa and others on SoundCloud.

Здесь вы можете прослушать песню Wiz Khalifa - Let It Go (Feat. Wiz Khalifa - Winnin Feat. Wiz Khalifa - Everthing Ft P The Dude. Akon) онлайн в плеере бесплатно. Слушай музыку только в хорошем качестве. Wiz Khalifa - The Motto (Feat. Juicy J & Berner). Wiz Khalifa - Aw Shit (Datpiff Exclusive). Wiz Khalifa - Locked & Loaded (Feat. Wiz Khalifa - Black & Yellow (Instrumental). Wiz Khalifa - Different So Fast (Feat. Wiz Khalifa - So High (Feat. Wiz Khalifa - Knock U Down.

Download and listen free to Wiz Khalifa feat. Akon - Let It Go. We have song's lyrics, which you can find out below. Lyrics. Download MP3 or another format to your phone or computer.

Wiz Khalifa – Let It Go feat Akon) (Screwed & Chopped. Wiz Khalifa – Let It Go Feat Akon) (v. om/urbansoundz. wiz khalifa feat akon – let it go. 4:19. Akon, Wiz Khalifa – Let It Go. Akon – Let It Go Feat Wiz Khalifa. Wiz Khalifa & Akon ))) – Wiz Khalifa - Let It Go feat. Kid Ink – Let It Go (Famous prod. Wiz Khalifa x Akon – Let It Go. 3:44. Wiz Khalifa - Let It Go Feat Akon.

Let it go by Wiz khalifa featuring Akon. Akon (Official ) 720p HD Video. By : Music-Ultimatum. Published: 17 Feb 2015. More videos from Music-Ultimatum. Enrique Iglesias - Cuando Me Enamoro feat. Juan Luis Guerra (Official video) HD. 04:57. Ed Sheeran - Thinking Out Loud (Official Video HD) 720p.


General
Complete name : Wiz Khalifa Ft. Akon - Let It Go [Music Video] 1080p [Sbyky].mp4
Format : MPEG-4
Format profile : Base Media / Version 2
Codec ID : mp42
File size : 118 MiB
Duration : 4mn 43s
Overall bit rate mode : Variable
Overall bit rate : 3 478 Kbps
Encoded date : UTC 2013-04-08 05:55:10
Tagged date : UTC 2013-04-08 05:55:10
Video
ID : 1
Format : AVC
Format/Info : Advanced Video Codec
Format profile : [email protected]
Format settings, CABAC : Yes
Format settings, ReFrames : 1 frame
Codec ID : avc1
Codec ID/Info : Advanced Video Coding
Duration : 4mn 43s
Bit rate : 3 284 Kbps
Maximum bit rate : 14.1 Mbps
Width : 1 920 pixels
Height : 1 080 pixels
Display aspect ratio : 16:9
Frame rate mode : Constant
Frame rate : 23.976 fps
Color space : YUV
Chroma subsampling : 4:2:0
Bit depth : 8 bits
Scan type : Progressive
Bits/(Pixel*Frame) : 0.066
Stream size : 111 MiB (94%)
Tagged date : UTC 2013-04-08 05:55:24
Audio
ID : 2
Format : AAC
Format/Info : Advanced Audio Codec
Format profile : LC
Codec ID : 40
Duration : 4mn 43s
Bit rate mode : Variable
Bit rate : 192 Kbps
Maximum bit rate : 202 Kbps
Channel(s) : 2 channels
Channel positions : Front: L R
Sampling rate : 44.1 KHz
Compression mode : Lossy
Stream size : 6.49 MiB (6%)
Title : IsoMedia File Produced by Google, 5-11-2011
Encoded date : UTC 2013-04-08 05:55:20
Tagged date : UTC 2013-04-08 05:55:24
Shared By Sbyky

Related music:
PSY - Gentleman 1080p Music Video download PSY - Gentleman 1080p Music Video
Video
English
145.3 MB
4.7
/images/5/2/psy-gentleman-1080p-music-video-.jpg
J Cole - Work Out 1080p Music Video download J Cole - Work Out 1080p Music Video
Video
English
153.3 MB
4.1
/images/5/3/j-cole-work-out-1080p-music-video-.jpg
Little Mix - Little Me 1080p Music Video download Little Mix - Little Me 1080p Music Video
Video
English
74.7 MB
4.9
/images/5/1/little-mix-little-me-1080p-music-video-.jpg
Akon Ft French Montana - Hurt Somebody 1080p download Akon Ft French Montana - Hurt Somebody 1080p
Video
English
153.8 MB
4.7
/images/5/0/akon-ft-french-montana-hurt-somebody-1080p-.jpg
Wiz Khalifa - Paperbond 1080p Music Video download Wiz Khalifa - Paperbond 1080p Music Video
Video
English
91.9 MB
4.2
/images/5/6/wiz-khalifa-paperbond-1080p-music-video-.jpg
INNA - Wow 1080p Music Video download INNA - Wow 1080p Music Video
Video
English
152.3 MB
4.0
/images/noimage.jpg
Stromae - Papaoutai 1080p Music Video download Stromae - Papaoutai 1080p Music Video
Video
French
83.4 MB
4.5
/images/5/3/stromae-papaoutai-1080p-music-video-.jpg
Future - Honest 1080p Music Video download Future - Honest 1080p Music Video
Video
English
100.8 MB
4.3
/images/5/8/future-honest-1080p-music-video-.jpg
Naughty Boy Ft Wiz Khalifa & Ella Eyre - Think About It 1080p Music Video download Naughty Boy Ft Wiz Khalifa & Ella Eyre - Think About It 1080p Music Video
Video
English
51.4 MB
4.0
/images/5/3/naughty-boy-ft-wiz-khalifa-26-ella-eyre-think-about-it-1080p-music-video-.jpg