Files 42316
» » Wiz Khalifa - Mezmorized 720p Official Music Video
Language: English
Size: 55.9 MB
Votes: 504
Downloaded: 17
Category: Video
Format: MP3, FLAC
4.8

File list

  • File Info.txt (2.9 KB)
  • Shared By Sbyky.txt (0.0 KB)
  • Torrent downloaded from Demonoid.me.txt (0.0 KB)
  • Wiz Khalifa - Mezmorized (Official Music Video).MP4 (55.9 MB)

Kush & Orange Juice.

Kush & Orange Juice. Young Thug - Hot ft. Gunna & Travis Scott.

Khalifa is a compilation album by American rapper Wiz Khalifa. Khalifa is a compilation album by American rapper Wiz Khalifa.

WSHH PREMIERE Music video for Rick Ross' "RetroSuperFuture II" featuring Wiz Khalifa Wale . Wiz Khalifa & Wale) - RetroSuperFuture II MUSIC VIDEO 2011. Wiz Khalifa - The Kid Frankie (Official HD Video). Tinie Tempah - Till I'm Gone ft. Wiz Khalifa. Wiz Khalifa) - This Weed Iz Mine.

Mezmorized - Artist: Wiz Khalifa, Director: Bill Paladino, Label: Unknown; no label specified.

So Turnt Up Wiz Khalifa. Official Music Video www flvto com Wiz Khalifa Ft Big Sean - GangBang. 4:10 Wiz Khalifa - The Thrill - YouTub. Wiz Khalifa - Cameras (Music Video) - YouTube. Chapo (Official Music Video) Wiz Khalifa x Berner. Wiz Khalifa - Nothing On You ft.


General
Complete name : Wiz Khalifa - Mezmorized (Official Music Video).MP4
Format : MPEG-4
Format profile : Base Media / Version 2
Codec ID : mp42
File size : 55.9 MiB
Duration : 3mn 44s
Overall bit rate mode : Variable
Overall bit rate : 2 088 Kbps
Encoded date : UTC 2010-06-09 01:18:03
Tagged date : UTC 2010-06-09 01:18:03
Video
ID : 2
Format : AVC
Format/Info : Advanced Video Codec
Format profile : [email protected]
Format settings, CABAC : Yes
Format settings, ReFrames : 1 frame
Codec ID : avc1
Codec ID/Info : Advanced Video Coding
Duration : 3mn 44s
Bit rate : 1 960 Kbps
Maximum bit rate : 3 177 Kbps
Width : 1 280 pixels
Height : 544 pixels
Display aspect ratio : 2.35:1
Frame rate mode : Constant
Frame rate : 24.000 fps
Color space : YUV
Chroma subsampling : 4:2:0
Bit depth : 8 bits
Scan type : Progressive
Bits/(Pixel*Frame) : 0.117
Stream size : 52.5 MiB (94%)
Title : (C) 2007 Google Inc. v08.13.2007.
Encoded date : UTC 2010-06-09 01:18:03
Tagged date : UTC 2010-06-09 01:18:04
Audio
ID : 1
Format : AAC
Format/Info : Advanced Audio Codec
Format profile : LC
Codec ID : 40
Duration : 3mn 44s
Bit rate mode : Variable
Bit rate : 125 Kbps
Maximum bit rate : 142 Kbps
Channel(s) : 2 channels
Channel positions : Front: L R
Sampling rate : 44.1 KHz
Compression mode : Lossy
Stream size : 3.36 MiB (6%)
Title : (C) 2007 Google Inc. v08.13.2007.
Encoded date : UTC 2010-06-09 01:18:03
Tagged date : UTC 2010-06-09 01:18:04

Related music:
Edward Maya & Mia Martina - Stereo Love 720p Music Video download Edward Maya & Mia Martina - Stereo Love 720p Music Video
Video
English
88.5 MB
4.6
/images/5/8/edward-maya-26-mia-martina-stereo-love-720p-music-video-.jpg
John Legend - All Of Me 720p Music Video download John Legend - All Of Me 720p Music Video
Video
English
62.7 MB
4.1
/images/5/4/john-legend-all-of-me-720p-music-video-.jpg
Wiz Khalifa Ft Akon - Let It Go 1080p Music Video download Wiz Khalifa Ft Akon - Let It Go 1080p Music Video
Video
English
117.5 MB
4.2
/images/5/6/wiz-khalifa-ft-akon-let-it-go-1080p-music-video-.jpg
P!nk - Try 720p Music Video download P!nk - Try 720p Music Video
Video
English
54.4 MB
4.9
/images/5/7/p21nk-try-720p-music-video-.jpg
Fat Joe Ft Wiz Khalifa & Teyana Taylor - Ballin' 720p Music Video download Fat Joe Ft Wiz Khalifa & Teyana Taylor - Ballin' 720p Music Video
Video
English
49.4 MB
4.6
/images/5/2/fat-joe-ft-wiz-khalifa-26-teyana-taylor-ballin27-720p-music-video-.jpg
Shakira Ft Dizzee Rascal - Loca 720p Music Video download Shakira Ft Dizzee Rascal - Loca 720p Music Video
Video
English
73.9 MB
4.7
/images/5/9/shakira-ft-dizzee-rascal-loca-720p-music-video-.jpg
Redlight King - Old Man 720p Music Video download Redlight King - Old Man 720p Music Video
Video
English
38.7 MB
4.4
/images/5/2/redlight-king-old-man-720p-music-video-.jpg
Edward Maya & Vika Jigulina - Stereo Love 720p Music Video download Edward Maya & Vika Jigulina - Stereo Love 720p Music Video
Video
English
48.5 MB
4.9
/images/5/5/edward-maya-26-vika-jigulina-stereo-love-720p-music-video-.jpg