Files 42316
» » Tiesto Ft Kyler England - Take Me 720p Music Video
Language: English
Size: 51.8 MB
Votes: 161
Downloaded: 33
Category: Video
Format: MP3, FLAC
4.7

File list

  • Tiesto Ft. Kyler England - Take Me [Music Video] 720p [Sbyky].mp4 (51.8 MB)

Kyler England Take Me EDM superstar Tiësto soundtracks this desert . .EDM superstar Tiësto soundtracks this desert joyride with new floor filler Take M. unsets, smoke machines and fast cars, it’s never or now for these two thrill seekers.

Kyler England Take Me EDM superstar Tiësto soundtracks this desert .

Kyler England –Take Me (Michael Brun Remix). Ti sto –Take Me (f. yler England). Club Life 318 –15 - Ti sto feat. Kyler England - Take Me. 3:32. Tiesto Feat Kyler England –Take Me (Radio Mix). Tiesto –Take Me (Original Mix) Feat.

Tiësto ft. Kyler England.

Tiesto ft. Kyler England vs Stellar Project – Take Me (Dj Lykov Bootleg) MOUSE-P.

Tiesto/Kyler England – Tiesto ft. Kyler England - Take Me(Nexan Remix). Tiesto ft. Kyler England – Take Me. 5:52. Kyler England – Take Me (Michael Brun Remix) ll l. lDILO ll.

Kyler England – Take Me (Original Mix) EX Energy. CLUB LIFE 519 – 13 - Ti sto ft Kyler England - Take Me. 4:16. Tiesto & Kyler England, Criminal Vibes – (M. ay Lens MashUp). Tiesto, Kyler England – Take Me feat. Kyler England (Original Mix).

Kyler England - Take Me (Lyric Video). Danny Claire - Love is Gone (Cold Rush Remix) (Music Video).

Download and listen free to Tiesto feat. We have song's lyrics, which you can find out below. Lyrics. Download MP3 or another format to your phone or computer.


General
Complete name : Tiesto Ft. Kyler England - Take Me [Music Video] 720p [Sbyky].mp4
Format : MPEG-4
Format profile : Base Media / Version 2
Codec ID : mp42
File size : 51.8 MiB
Duration : 3mn 33s
Overall bit rate mode : Variable
Overall bit rate : 2 041 Kbps
Encoded date : UTC 2013-08-15 13:00:54
Tagged date : UTC 2013-08-15 13:00:54
Video
ID : 1
Format : AVC
Format/Info : Advanced Video Codec
Format profile : [email protected]
Format settings, CABAC : Yes
Format settings, ReFrames : 1 frame
Codec ID : avc1
Codec ID/Info : Advanced Video Coding
Duration : 3mn 33s
Bit rate : 1 847 Kbps
Maximum bit rate : 6 693 Kbps
Width : 1 280 pixels
Height : 720 pixels
Display aspect ratio : 16:9
Frame rate mode : Constant
Frame rate : 25.000 fps
Color space : YUV
Chroma subsampling : 4:2:0
Bit depth : 8 bits
Scan type : Progressive
Bits/(Pixel*Frame) : 0.080
Stream size : 46.9 MiB (90%)
Tagged date : UTC 2013-08-15 13:00:56
Audio
ID : 2
Format : AAC
Format/Info : Advanced Audio Codec
Format profile : LC
Codec ID : 40
Duration : 3mn 33s
Bit rate mode : Variable
Bit rate : 192 Kbps
Maximum bit rate : 204 Kbps
Channel(s) : 2 channels
Channel positions : Front: L R
Sampling rate : 44.1 KHz
Compression mode : Lossy
Stream size : 4.88 MiB (9%)
Title : IsoMedia File Produced by Google, 5-11-2011
Encoded date : UTC 2013-08-15 13:00:55
Tagged date : UTC 2013-08-15 13:00:56
Shared By Sbyky

Related music:
Emily Kinney - Kids 720p Music Video download Emily Kinney - Kids 720p Music Video
Video
English
60.5 MB
4.2
/images/5/3/emily-kinney-kids-720p-music-video-.jpg
Bon Jovi - Because We Can 720p Music Video download Bon Jovi - Because We Can 720p Music Video
Video
English
52.1 MB
4.7
/images/5/0/bon-jovi-because-we-can-720p-music-video-.jpg
Cher Lloyd Ft T I - I Wish 720p Music Video download Cher Lloyd Ft T I - I Wish 720p Music Video
Video
English
60.6 MB
4.3
/images/5/1/cher-lloyd-ft-t-i-i-wish-720p-music-video-.jpg
John Legend - All Of Me 720p Music Video download John Legend - All Of Me 720p Music Video
Video
English
62.7 MB
4.1
/images/5/4/john-legend-all-of-me-720p-music-video-.jpg
Taylor Swift - We Are Never Ever Getting Back Together 720p Music Video download Taylor Swift - We Are Never Ever Getting Back Together 720p Music Video
Video
English
61.4 MB
4.0
/images/5/0/taylor-swift-we-are-never-ever-getting-back-together-720p-music-video-.jpg
Stromae - Papaoutai 720p Music Video download Stromae - Papaoutai 720p Music Video
Video
French
41.8 MB
4.6
/images/5/0/stromae-papaoutai-720p-music-video-.jpg
Ke$ha - Dirty Love 720p Music Video download Ke$ha - Dirty Love 720p Music Video
Video
English
77.0 MB
4.1
/images/5/7/ke24ha-dirty-love-720p-music-video-.jpg
J Cole - Work Out 720p Music Video download J Cole - Work Out 720p Music Video
Video
English
79.9 MB
4.2
/images/5/9/j-cole-work-out-720p-music-video-.jpg
Little Mix - Little Me 720p Music Video download Little Mix - Little Me 720p Music Video
Video
English
37.9 MB
4.1
/images/5/5/little-mix-little-me-720p-music-video-.jpg