Files 42316
» » Katy Perry Ft Juicy J - Dark Horse 720p Music Video
Language: English
Size: 55.1 MB
Votes: 167
Downloaded: 36
Category: Video
Format: MP3, FLAC
4.8

File list

  • Katy Perry Ft. Juicy J - Dark Horse [Music Video] 720p [Sbyky].MP4 (55.1 MB)

Music video by Katy Perry performing Dark Horse. Pip - Happier Music Video Marshmello Happier (UNOFFICIAL MUSIC VIDEO) Pip Dog Song Animated Film - Продолжительность: 3:57 Superstar Music Recommended for you. 3:57.

Music video by Katy Perry performing Dark Horse. Katy Perry, Max Martin, Juicy J, Łukasz Gottwald, Sarah Hudson, Cirkut.

Juicy J - Dark Horse (UpFilm). Katy Perry - This Is How We Do (UpFilm). Pharrell Williams Ft. Miley Cyrus - Come Get It Bae (UpFilm). Katy Perry Ft. Juicy J - Dark Horse (UpFilm).

Juicy J]. Открывайте новую музыку каждый день. The One That Got Away Male Version; Karaoke Instrumental Track. Лента с персональными рекомендациями и музыкальными новинками, радио, подборки на любой вкус, удобное управление своей коллекцией. Миллионы композиций бесплатно и в хорошем качестве.

Thousands of YouTube videos with English-Chinese subtitles! Now you can learn to understand native speakers, expand your . Baby do you dare to do this Cause I'm coming at you like a dark horse. Are you ready for, ready for A perfect storm, perfect storm.

Thousands of YouTube videos with English-Chinese subtitles! Now you can learn to understand native speakers, expand your vocabulary, and improve your pronunciation. Cause once you're mine, once you're mine (There's no going back).

Juicy J) by KatyPerry from desktop or your mobile device. Katy Perry Pro Unlimited. 244,777 followers244K. Follow KatyPerry and others on SoundCloud.


General
Complete name : Katy Perry Ft. Juicy J - Dark Horse [Music Video] 720p [Sbyky].MP4
Format : MPEG-4
Format profile : Base Media
Codec ID : isom
File size : 55.1 MiB
Duration : 3mn 45s
Overall bit rate mode : Variable
Overall bit rate : 2 053 Kbps
Encoded date : UTC 2014-02-18 14:23:08
Tagged date : UTC 2014-02-18 14:23:08
Video
ID : 1
Format : AVC
Format/Info : Advanced Video Codec
Format profile : [email protected]
Format settings, CABAC : Yes
Format settings, ReFrames : 3 frames
Codec ID : avc1
Codec ID/Info : Advanced Video Coding
Duration : 3mn 44s
Bit rate : 1 924 Kbps
Width : 1 280 pixels
Height : 720 pixels
Display aspect ratio : 16:9
Frame rate mode : Variable
Frame rate : 23.976 fps
Minimum frame rate : 23.974 fps
Maximum frame rate : 24.590 fps
Color space : YUV
Chroma subsampling : 4:2:0
Bit depth : 8 bits
Scan type : Progressive
Bits/(Pixel*Frame) : 0.087
Stream size : 51.6 MiB (94%)
Encoded date : UTC 2014-02-18 14:23:08
Tagged date : UTC 2014-02-18 14:23:08
Audio
ID : 2
Format : AAC
Format/Info : Advanced Audio Codec
Format profile : LC
Codec ID : 40
Duration : 3mn 45s
Bit rate mode : Variable
Bit rate : 126 Kbps
Channel(s) : 2 channels
Channel positions : Front: L R
Sampling rate : 44.1 KHz
Compression mode : Lossy
Stream size : 3.37 MiB (6%)
Encoded date : UTC 2014-02-18 14:24:26
Tagged date : UTC 2014-02-18 14:24:26
Shared By Sbyky

Related music:
Agnez Mo Ft Timbaland & T I - Coke Bottle 720p Music Video download Agnez Mo Ft Timbaland & T I - Coke Bottle 720p Music Video
Video
English
70.6 MB
4.4
/images/5/6/agnez-mo-ft-timbaland-26-t-i-coke-bottle-720p-music-video-.jpg
Katy Perry Ft Migos - Bon Appétit 1080p Music Video download Katy Perry Ft Migos - Bon Appétit 1080p Music Video
Video
English
99.9 MB
4.7
/images/5/4/katy-perry-ft-migos-bon-appc3a9tit-1080p-music-video-.jpg
Iggy Azalea Ft Rita Ora - Black Widow 720p Music Video download Iggy Azalea Ft Rita Ora - Black Widow 720p Music Video
Video
English
49.2 MB
4.5
/images/5/1/iggy-azalea-ft-rita-ora-black-widow-720p-music-video-.jpg
Fall Out Boy - Where Did The Party Go 720p Music Video download Fall Out Boy - Where Did The Party Go 720p Music Video
Video
English
46.7 MB
4.9
/images/5/7/fall-out-boy-where-did-the-party-go-720p-music-video-.jpg
Katy Perry - Birthday 1080p Music Video download Katy Perry - Birthday 1080p Music Video
Video
English
214.8 MB
4.2
/images/5/2/katy-perry-birthday-1080p-music-video-.jpg
Katy Perry - Last Friday Night 720p T.G.I.F. download Katy Perry - Last Friday Night 720p T.G.I.F.
Video
English
130.6 MB
4.2
/images/5/7/katy-perry-last-friday-night-720p-tgif-.jpg