Files 42316
» » Eminem - Survival 720p watwasthat PimpRG
Language: English
Size: 73.2 MB
Votes: 279
Downloaded: 37
Category: Video
Format: MP3, FLAC
4.6

File list

  • Eminem - Survival (Explicit).mp4 (73.2 MB)
  • Torrent downloaded from pimp4003-torrents.me.txt (0.1 KB)

Description: Eminem - Survival (Explicit). General Eminem - Survival (Explicit). mp4 (7. MB). Torrent downloaded from pimp4003-torrents.

Description: Eminem - Survival (Explicit). Eminem - Survival (Explicit).

Details for this torrent. Eminem - Survival FLAC watwasthat (PimpRG). FLAC Hip-Hop/Rap PimpRG. Uploaded: 2013-10-15 09:23:46 GMT.

If the content above is not authorized, please contact us via contactp2bt. Remember to include the full url in your complaint. All resources are automatically indexed from the DHT network.

Check out the official explicit music video for "Survival" by Eminem Download Eminem's 'MMLP2' Album – Deluxe . Music video by Eminem performing Survival (Explicit). C) 2013 Aftermath Records/Interscope Records.

it/MMLP2 Music video.

Eminem - Survival (Explicit). mp473 MB. You cannot download any of those files from here. Saaho (2019 0s, epub 2s, Traffic 2016 movie 2s, 1s, bharat movies 2019 0s, Readiris Pro 17 1s, mdtm-402 1s, Catastrophe 2s, bruford 1s, powerdirector 16 ultimate 2s. 03s.

The music video for Eminem's "Survival" which features footage from Call of Duty . The official music video for "Survival" was released on October 8, 2013. ch AAC.

The music video for Eminem's "Survival" which features footage from Call of Duty: Ghosts (2013) in the background. The music video featured Eminem rapping in front of footage of Call of Duty: Ghosts featured on a projector, with additional shots featuring elements from the game such as dogs and soldiers in their in-game outfits  .

0. Eminem - Survival (Explicit) 720p watwasthat (PimpRG) Posted by watwasthat in Music Video. 0. Eminem - Survival Explicit 720p Sbyky Posted by Sbyky in Music Video.



Eminem - Survival (Explicit)
General
Format : MPEG-4
Format profile : Base Media / Version 2
Codec ID : mp42
File size : 73.2 MiB
Duration : 4mn 31s
Overall bit rate mode : Variable
Overall bit rate : 2 261 Kbps
Video
ID : 1
Format : AVC
Format/Info : Advanced Video Codec
Format profile : [email protected]
Format settings, CABAC : Yes
Format settings, ReFrames : 1 frame
Codec ID : avc1
Codec ID/Info : Advanced Video Coding
Duration : 4mn 31s
Bit rate : 2 067 Kbps
Maximum bit rate : 6 560 Kbps
Width : 1 280 pixels
Height : 720 pixels
Display aspect ratio : 16:9
Frame rate mode : Constant
Frame rate : 23.976 fps
Color space : YUV
Chroma subsampling : 4:2:0
Bit depth : 8 bits
Scan type : Progressive
Bits/(Pixel*Frame) : 0.094
Stream size : 66.9 MiB (91%)
Audio
ID : 2
Format : AAC
Format/Info : Advanced Audio Codec
Format profile : LC
Codec ID : 40
Duration : 4mn 31s
Bit rate mode : Variable
Bit rate : 192 Kbps
Maximum bit rate : 202 Kbps
Channel count : 2 channels
Channel positions : Front: L R
Sampling rate : 44.1 KHz
Compression mode : Lossy
Stream size : 6.22 MiB (8%)

Related music:
Eminem Ft Rihanna - The Monster 720p download Eminem Ft Rihanna - The Monster 720p
Video
English
57.4 MB
4.9
/images/5/3/eminem-ft-rihanna-the-monster-720p-.jpg
2 Chainz - I'm Different 720p download 2 Chainz - I'm Different 720p
Video
English
76.5 MB
4.3
/images/5/0/2-chainz-i27m-different-720p-.jpg
Dr Dre Ft Eminem & Skylar Grey - I Need A Doctor 720p download Dr Dre Ft Eminem & Skylar Grey - I Need A Doctor 720p
Video
English
131.1 MB
4.1
/images/5/3/dr-dre-ft-eminem-26-skylar-grey-i-need-a-doctor-720p-.jpg
Eminem - Berzerk 720p download Eminem - Berzerk 720p
Video
English
97.3 MB
4.2
/images/5/9/eminem-berzerk-720p-.jpg
Eminem Ft Rihanna - The Monster 1080p download Eminem Ft Rihanna - The Monster 1080p
Video
English
108.0 MB
4.7
/images/5/3/eminem-ft-rihanna-the-monster-1080p-.jpg
John Legend - All Of Me 720p Music Video download John Legend - All Of Me 720p Music Video
Video
English
62.7 MB
4.1
/images/5/4/john-legend-all-of-me-720p-music-video-.jpg
2 Chainz Ft Cap 1 - Where U Been 720p download 2 Chainz Ft Cap 1 - Where U Been 720p
Video
English
84.8 MB
4.7
/images/5/6/2-chainz-ft-cap-1-where-u-been-720p-.jpg
Ik Tu Hi Tu Hi - Mausam 720P HD Video Song 2011 download Ik Tu Hi Tu Hi - Mausam 720P HD Video Song 2011
Video
Hindi
86.3 MB
4.4
/images/5/7/ik-tu-hi-tu-hi-mausam-720p-hd-video-song-2011.jpg
Katy Perry - Last Friday Night 720p T.G.I.F. download Katy Perry - Last Friday Night 720p T.G.I.F.
Video
English
130.6 MB
4.2
/images/5/7/katy-perry-last-friday-night-720p-tgif-.jpg
Rihanna - Pour It Up 720p download Rihanna - Pour It Up 720p
Video
English
54.9 MB
4.7
/images/5/1/rihanna-pour-it-up-720p-.jpg