Files 42316
» » Tu Hi junoon 720p HD Full song
Language: Hindi
Size: 78.7 MB
Votes: 949
Downloaded: 28
Category: Video
Format: MP3, FLAC
4.5

File list

  • Tu Hi Junoon - Full Song.avi (77.2 MB)
Screenshots
  • 4.JPG (291.2 KB)
  • 7.JPG (284.4 KB)
  • 1.JPG (208.8 KB)
  • 6.JPG (155.3 KB)
  • 8.JPG (153.2 KB)
  • 3.JPG (137.0 KB)
  • 5.JPG (135.1 KB)
  • 2.JPG (109.3 KB)
  • 9.JPG (63.0 KB)
  • Details.txt (1.3 KB)

Tu hi junoon, Tu hi karaar Tu hi junoon, Tu hi karaar.

Tu hi junoon, Tu hi karaar Tu hi junoon, Tu hi karaar. Aasmaan siyaah ghulne laga hai Baadlon ka dil khulne laga sa hai Tu mila khila din, raat dhal gayi Daag chand la ghulne laga sa hai Likh diya dil ki kalam se tumhara naam Baandh ke taaveez main pehnu subaho shaan. Tu jale toh din chadhe Tu bujhe toh raat Dil kare kurbaan karun Tujhpe apni jaan Tu hi junoon, Tu hi karaar Tu hi junoon, Tu hi karaar Dhoom 3 – Dhoom Machale Dhoom HD Video Song.

Смотрите видео Dhoom Songs 1080P в высоком качестве

Смотрите видео Dhoom Songs 1080P в высоком качестве.

Page information: Download Tu Hi Junoon - Full Song - DHOOM-3 video to your mobile or play it. You will certainly enjoy it's fascinating scenes

Page information: Download Tu Hi Junoon - Full Song - DHOOM-3 video to your mobile or play it. You will certainly enjoy it's fascinating scenes. At PHONEKY Free Video Service, you can download or play mobile videos and movie clips of different genres, from Music and Sports to the Cars and Funny videos.

Salman Khan and Katrina Kaif.

Tu Hi Junoon - Full Song - DHOOM-3 - Aamir Khan - Katrina Kaif - Mohit Chauhan. Tu Hi Junoon 720p - Dhoom 3 - Video Hindi Song. Tu Hi Junoon - DHOOM 3 - Katrina Kaif + Aamir Khan (Türkçe Altyazılı). Tu Hi Junoon - Song - DHOOM:3. HSC Dhoom 3--Tu Hi Junoon. Tu Hi Junoon 720p - Dhoom 3 watch online. Aamir Khan (DHOOM:3) - Tu Hi Junoon German. Tu Hi Junoon - Full Song - DHOOM׃3. Tu Hi Junoon HD - Song Promo - DHOOM-3. Tu Hi Hai Meri Jagga Jasoos Armaan Malik Arijit Singh Ranbir Kapoor Katrina Kaif.

This song titled Tu Hi Junoon Full Song is from the film Dhoom 3, sung by Mohit Chauhan. Dhoom 3 is starring Aamir Khan, Abhishek Bachchan, Uday Chopra, Katrina Kaif and Jackie Shroff. Dhoom 3 HD Videos, Dhoom 3 720p Videos, Dhoom 3 1080p Videos, MP4 Videos, Mp4 Songs, Dhoom 3 HQ Videos, Dhoom 3 High Definition Videos, Dhoom 3 DVD Rips, Aamir Khan, Abhishek Bachchan, Uday Chopra, Katrina Kaif, Jackie Shroff, Vijay Krishna Acharya, Pritam Chakraborty, Dhoom 3 - Fasten Your Seatbelts, fasten your seatbelts, dhoom 3, 3 dhoom, Aamir Khan, Abhishek.

Remix Hai Junoon Song New York John Abraham Katrina Kaif Neil Nitin Mukesh KK - Поиск музыки онлайн на Mp3muzlo, скачивайте . Hai Junoon New York HD 720p. Hai Junoon Full Song Audio New York KK Pritam.

Remix Hai Junoon Song New York John Abraham Katrina Kaif Neil Nitin Mukesh KK - Поиск музыки онлайн на Mp3muzlo, скачивайте музыку без ограничений! . 7 MB 00:06:58 140. Слушать. 9 MB 00:05:28 2K.

Tu Hi junoon 720p HD Full song





    Format : AVIFormat/Info : Audio Video InterleaveFile size : 77.2 MiBDuration : 4mn 56sOverall bit rate : 2 185 KbpsWriting application : MEncoder Writing library : MPlayerVideo #0ID : 0Format : MPEG-4 VisualFormat profile : Advanced [email protected] settings, BVOP : 2Format settings, QPel : NoFormat settings, GMC : No warppointsFormat settings, Matrix : Default (H.263)Codec ID : XVIDCodec ID/Hint : XviDDuration : 4mn 56sBit rate : 2 045 KbpsWidth : 1 280 pixelsHeight : 720 pixelsDisplay aspect ratio : 16:9Frame rate : 30.000 fpsColor space : YUVChroma subsampling : 4:2:0Bit depth : 8 bitsScan type : ProgressiveCompression mode : LossyBits/(Pixel*Frame) : 0.074Stream size : 72.2 MiB (94%)Writing library : XviD 1.2.1 (UTC 2008-12-04)Audio #1ID : 1Format : MPEG AudioFormat version : Version 1Format profile : Layer 3Mode : Joint stereoMode extension : MS StereoCodec ID : 55Codec ID/Hint : MP3Duration : 4mn 56sBit rate mode : ConstantBit rate : 128 KbpsChannel(s) : 2 channelsSampling rate : 44.1 KHzCompression mode : LossyDelay relative to video : 33msStream size : 4.52 MiB (6%)Alignment : Aligned on interleavesInterleave, duration : 26 ms (0.78 video frame)Interleave, preload duration : 522 msWriting library : LAME3.98.4

Related music:
Flo Rida ft Nelly Furtado - Jump Official Music Video download Flo Rida ft Nelly Furtado - Jump Official Music Video
Video
English
83.1 MB
4.3
/images/5/8/flo-rida-ft-nelly-furtado-jump-official-music-video-.jpg
Anna Lesko feat Gilberto - Go Crazy HDRip 2012-MFA download Anna Lesko feat Gilberto - Go Crazy HDRip 2012-MFA
Video
English
51.6 MB
4.8
/images/5/3/anna-lesko-feat-gilberto-go-crazy-hdrip-2012-mfa.jpg
Sheila Ki Jawani full Hindi Song Tees Maar Khan Feat Katrina Kaif HD Video Innovative Team 2010 download Sheila Ki Jawani full Hindi Song Tees Maar Khan Feat Katrina Kaif HD Video Innovative Team 2010
Video
Hindi
18.6 MB
4.0
/images/5/6/sheila-ki-jawani-full-hindi-song-tees-maar-khan-feat-katrina-kaif-hd-video-innovative-team-2010.jpg
Akcent feat Sandra N - I'm Sorry HDRip 2012-MFA download Akcent feat Sandra N - I'm Sorry HDRip 2012-MFA
Video
English
38.7 MB
4.2
/images/5/4/akcent-feat-sandra-n-i27m-sorry-hdrip-2012-mfa.jpg
Connect-R - Vara nu dorm 2012-MFA download Connect-R - Vara nu dorm 2012-MFA
Video
English
141.6 MB
4.5
/images/5/1/connect-r-vara-nu-dorm-2012-mfa.jpg
Metallimania DVDRip x264 AAC peaSoup 1997 download Metallimania DVDRip x264 AAC peaSoup 1997
DVD
English
1.8 GB
4.2
/images/5/4/metallimania-dvdrip-x264-aac-peasoup-1997.jpg
Eagles - Hell Freezes Over DVDRip XviD AC3 peaSoup 2005 download Eagles - Hell Freezes Over DVDRip XviD AC3 peaSoup 2005
DVD
English
1.9 GB
4.4
/images/5/0/eagles-hell-freezes-over-dvdrip-xvid-ac3-peasoup-2005.jpg
Lady Gaga - Judas - Xclusive - D$R 2011 720p-HD download Lady Gaga - Judas - Xclusive - D$R 2011 720p-HD
Video
English
115.4 MB
4.7
/images/5/5/lady-gaga-judas-xclusive-d24r-2011-720p-hd.jpg
Kamelia - Prima oara 2012-MFA Official Video download Kamelia - Prima oara 2012-MFA Official Video
Video
English
57.7 MB
4.5
/images/5/1/kamelia-prima-oara-2012-mfa-official-video.jpg