Files 42316
» » Do Kaliyaan 1968 DVDRip 480 AC3 5 1 TG Music Vidoes
Language: Hindi
Size: 194.2 MB
Votes: 125
Downloaded: 35
Category: Video
Format: MP3, FLAC
4.4

File list

  • Tumhari Nazar Kyon Khafa Ho Gayi - Lata Mangeshkar & M.Rafi [TG].mkv (46.2 MB)
  • Sajna O Sajna - Asha Bhosle [TG].mkv (36.4 MB)
  • Murga Murgi Pyar Se Dekhe - Lata Mangeshkar [TG].mkv (35.7 MB)
  • Bachche Man Ke Sachche - Lata Mangeshkar [TG].mkv (30.5 MB)
  • Chitnandan Aagey Nachoongi - Asha Bhosle [TG].mkv (30.1 MB)
  • Tumhari Nazar Kyon Khafa Ho Gayi - Lata [TG].mkv (15.4 MB)
  • Torrent download from www.torrentgarden.com.txt (0.7 KB)
  • Join Us Face Book.txt (0.6 KB)
  • Seeding Powered by www.ultraseedbox.com.txt (0.2 KB)

Stage Organization & Music Supervision: V Seetha Ramaiah.

Stage Organization & Music Supervision: V Seetha Ramaiah. Song: Tumhari Nazar Kyon Khafaa Ho Gai. Film: D O K A L I Y A N - 1968. Максим Галкин про Австралию.

Proud, wealthy, and haughty Kiran meets with down-to-earth middle-class fellow collegian, Shekhar, and after several clashes and misunderstandings, both fall in love and decide to get married. Shekhar meets with Kiran's dominating mom and mousy. Shekhar meets with Kiran's dominating mom and mousy dad, and is told that he must successfully pass a test that will be put to him through Kiran's mom, to which he agrees.

Dolby AC3 . 640 kbps. Countdown v1 (Lossless). Dts-hd ma . pcm . AC3 . Dolby 3D Glasses Return Trailer Flat (3D). Iso. Dolby 3D Movie Return Trailer Flat (2D). Dolby 3D Movie Return Trailer Flat (3D). Dolby Cinema - Element. Dolby AC3 .

Video: DVDRemux 853:480 (original) Real Picture a little less (DVD9 with chapters) Sound: JAP, JAP Dolby AC3 48000Hz . ch 448kbps Dolby AC3 48000Hz 2ch 448kbps Subs: RUS (softsub). 2018-01-13 03:33 UTC. And the X²: Double X short prequel to the theatrical X film? Choumono (uploader). Hello, rlee! Only 2:40 MV with quality like Digital VHS Rip.

KP0035, film, do kaliyan songs lata music RAVI lyrics sahir ludhianvi 1966.

free download Do Kaliyan 1968 Video, Do Kaliyan 1968 video Songs, Do Kaliyan 1968 bollywood movie video, 3gp Do Kaliyan 1968 video Download, mp4 Do Kaliyan 1968 hindi movie songs download, Do Kaliyan 1968 all video download, Do Kaliyan 1968 Hd Video Songs, Do Kaliyan 1968 full song download, Do Kaliyan 1968 Movie Download, Do Kaliyan 1968 HD video Download, hd. Mp4 Songs Download, video, 3gp, mp4 download, Do Kaliyan 1968 full video songs. KP0035, film, do kaliyan songs lata music RAVI lyrics sahir ludhianvi 1966.

Get this torrent PLAY/STREAM TORRENT.

Download Softwares, Games, Music, Movies, Wallpapers Daily Updates. Release Date: 7 January 2005. Media Information: Complete name : Vaada 2005 Hindi 720p DvDRip x264 AC3 . Vaada 2005 Hindi 720p DvDRip x264 AC3 . Posted on November 9, 2014 by NetMovie in Movies, Movies Torrents, Torrent. 25 Super Hot Amanda Bynes Wallpapers Set 3. Microsoft Visual Studio 2017 v1.

Please, upgrade your browser, OS or both. Prosím, aktualizujte svůj prohlížeč, operační systém nebo obojí. Video Player is loading.


Complete name : Do Kaliyaan (Music Vidoes) 1968 DVDRip 480 AC3 5.1[TG]
Format : Matroska
Format version : Version 4 / Version 2
File size : 30.5 MiB
Duration : 3mn 24s
Overall bit rate : 1 251 Kbps
Movie name : RSY 007 T-G
Encoded date : UTC 2014-10-30 10:17:39
Writing application : mkvmerge v7.1.0 ('Good Love') 32bit built on Jul 27 2014 12:59:18
Writing library : libebml v1.3.0 + libmatroska v1.4.1
DURATION : 00:03:24.192000000
NUMBER_OF_FRAMES : 6381
NUMBER_OF_BYTES : 4900608
_STATISTICS_WRITING_APP : mkvmerge v7.1.0 ('Good Love') 32bit built on Jul 27 2014 12:59:18
_STATISTICS_WRITING_DATE_UTC : 2014-10-30 10:17:39
_STATISTICS_TAGS : BPS DURATION NUMBER_OF_FRAMES NUMBER_OF_BYTES
Video
ID : 1
Format : MPEG-4 Visual
Format profile : Advanced [email protected]
Format settings, BVOP : 2
Format settings, QPel : No
Format settings, GMC : No warppoints
Format settings, Matrix : Default (H.263)
Codec ID : V_MS/VFW/FOURCC / XVID
Codec ID/Hint : XviD
Duration : 3mn 24s
Bit rate : 1 034 Kbps
Width : 640 pixels
Height : 480 pixels
Display aspect ratio : 4:3
Frame rate mode : Constant
Frame rate : 29.970 fps
Color space : YUV
Chroma subsampling : 4:2:0
Bit depth : 8 bits
Scan type : Progressive
Compression mode : Lossy
Bits/(Pixel*Frame) : 0.112
Stream size : 25.2 MiB (83%)
Title : RSY 007 T-G
Writing library : XviD 1.2.1 (UTC 2008-12-04)
Default : Yes
Forced : No
Audio
ID : 2
Format : AC-3
Format/Info : Audio Coding 3
Mode extension : CM (complete main)
Format settings, Endianness : Big
Codec ID : A_AC3
Duration : 3mn 24s
Bit rate mode : Constant
Bit rate : 192 Kbps
Channel(s) : 6 channels
Channel positions : Front: L C R, Side: L R, LFE
Sampling rate : 48.0 KHz
Bit depth : 16 bits
Compression mode : Lossy
Delay relative to video : 8ms
Stream size : 4.67 MiB (15%)
Title : RSY 007 T-G
Default : Yes
Forced : No
Screen Shots







Seedbox seeding 24x7 @ 1Gbps


Note : Please try to seed as much as you can since "sharing brings joy" !

Related music:
Sad Song - Sukh-E Muzical Doctorz HDRip 720p Punjabi - SSEC 2016 download Sad Song - Sukh-E Muzical Doctorz HDRip 720p Punjabi - SSEC 2016
Video
Hindi
66.7 MB
4.3
/images/5/6/sad-song-sukh-e-muzical-doctorz-hdrip-720p-punjabi-ssec-2016.jpg
Kyunki Main Jhoot Nahi Bolta - Full 720p Songs - truHD H 264 download Kyunki Main Jhoot Nahi Bolta - Full 720p Songs - truHD H 264
Video
Hindi
268.4 MB
4.8
/images/5/3/kyunki-main-jhoot-nahi-bolta-full-720p-songs-truhd-h-264.jpg
Dil Kare Chu Che - Singh Is Bliing - Team truHD™ Full 1080p HEVC 2015 download Dil Kare Chu Che - Singh Is Bliing - Team truHD™ Full 1080p HEVC 2015
Video
Hindi
34.3 MB
4.0
/images/5/0/dil-kare-chu-che-singh-is-bliing-team-truhde284a2-full-1080p-hevc-2015.jpg
Kal Kissne Dekha 2009 All Music Videos DvDRip 720p x264 AC3 5 1 TG- Encoder download Kal Kissne Dekha 2009 All Music Videos DvDRip 720p x264 AC3 5 1 TG- Encoder
Video
Hindi
711.7 MB
4.1
/images/5/7/kal-kissne-dekha-2009-all-music-videos-dvdrip-720p-x264-ac3-5-1-tg-encoder.jpg
David Gilmour-Rattle That Lock BRRip 1080p x264 by alE13 PCM/DTS Napisy PL/Multi Sub Eng 2015 download David Gilmour-Rattle That Lock BRRip 1080p x264 by alE13 PCM/DTS Napisy PL/Multi Sub Eng 2015
Video
English
5.2 GB
4.1
/images/5/3/david-gilmour-rattle-that-lock-brrip-1080p-x264-by-ale13-pcm2fdts-napisy-pl2fmulti-sub-eng-2015.jpg
VJ MAGRAO 90s Megamix DJ DVDRip download VJ MAGRAO 90s Megamix DJ DVDRip
DVD
English
1.4 GB
4.6
/images/5/8/vj-magrao-90s-megamix-dj-dvdrip.jpg
Scooter The Big Mash Up 2011 XviD DVDRip download Scooter The Big Mash Up 2011 XviD DVDRip
DVD
English
1.5 GB
4.5
/images/5/6/scooter-the-big-mash-up-2011-xvid-dvdrip.jpg
Zero Hour Mashup 2013 Full Song - Best Of Bollywood - download Zero Hour Mashup 2013 Full Song - Best Of Bollywood -
Video
Hindi
60.6 MB
4.0
/images/5/5/zero-hour-mashup-2013-full-song-best-of-bollywood-.jpg