Files 42316
» » Lady Gaga-Applause HDTV 1080p-shadowCopy
Language: English
Size: 110.6 MB
Votes: 385
Downloaded: 20
Category: Video
Format: MP3, FLAC
4.6

File list

  • Lady.Gaga-Applause.HDTV.1080p-shadowCopy.mp4 (110.6 MB)
  • Lady.Gaga-Applause.HDTV.1080p-shadowCopy.nfo (3.8 KB)

Video ID : 1 Format : AVC Format/Info : Advanced Video Codec Format profile : [email protected] 0 Format settings, CABAC : Yes Format settings, ReFrames : 4 frames Codec ID : avc1 Codec ID/Info : Advanced Video Coding Duration : 3mn 25s Bit rate : 4 433 Kbps Width : 1 920 pixels Height : 1 080 pixels Display aspect ratio : 16:9 Frame rate mode : Constant Frame.

Lady Gaga - Born This Way/Marry the Night - Children in Need Rocks Manchester (2011) HDTV 1080p-TPF. ThePixelFarm, Sep 28, 2019, in forum: HD Live Performances.

Forums Video Mania HD Live Performances . HDTV Lady Gaga - Applause 1080p HD. Discussion in 'HD Live Performances' started by gagamonster152, Mar 8, 2016. Lady Gaga - Born This Way/Marry the Night - Children in Need Rocks Manchester (2011) HDTV 1080p-TPF.

Discussion in 'HD Live Performances' started by gagamonster152, Mar 8, 2016.

ark:/13960/t8nc7s959.

Official remix of Lady Gaga's "Applause" by DJ White Shadow. Lady Gaga - Million Reasons (Andrelli Remix/Audio).

Lady Gaga - Applause. Download via torrent Download via magnet. not logged in. Random Downloads. 1 2 3 4 5 6 7 8 9 10 11 12 13 14 15 16 17 18 19 20 21 22 23 24 25 26 27 28 29 30 31 32 33 34 35 36 37 38 39 40 41 42 43 44 45 46 47 48 49 50. Downloads.

Category: HD MV (Archive) Added by: Peter Tags

Category: HD MV (Archive) Added by: Peter Tags: Views: 3499 Downloads: 0. ПОИСК.



Lady.Gaga-Applause.HDTV.1080p-shadowCopy
Format : MPEG-4
Format profile : Base Media
Codec ID : isom
File size : 111 MiB
Duration : 3mn 25s
Overall bit rate mode : Variable
Overall bit rate : 4 522 Kbps
Writing application : Lavf54.63.104
Video
ID : 1
Format : AVC
Format/Info : Advanced Video Codec
Format profile : [email protected]
Format settings, CABAC : Yes
Format settings, ReFrames : 4 frames
Codec ID : avc1
Codec ID/Info : Advanced Video Coding
Duration : 3mn 25s
Bit rate : 4 433 Kbps
Width : 1 920 pixels
Height : 1 080 pixels
Display aspect ratio : 16:9
Frame rate mode : Constant
Frame rate : 25.000 fps
Color space : YUV
Chroma subsampling : 4:2:0
Bit depth : 8 bits
Scan type : Progressive
Bits/(Pixel*Frame) : 0.086
Stream size : 107 MiB (97%)
Writing library : x264 core 123 r2189 35cf912
Encoding settings : cabac=1 / ref=3 / deblock=1:0:0 / analyse=0x3:0x133 / me=hex / subme=7 / psy=1 / psy_rd=1.00:0.00 / mixed_ref=1 / me_range=16 / chroma_me=1 / trellis=1 / 8x8dct=1 / cqm=0 / deadzone=21,11 / fast_pskip=1 / chroma_qp_offset=-2 / threads=4 / sliced_threads=0 / nr=0 / decimate=1 / interlaced=0 / bluray_compat=0 / constrained_intra=0 / bframes=3 / b_pyramid=2 / b_adapt=1 / b_bias=0 / direct=1 / weightb=1 / open_gop=0 / weightp=2 / keyint=250 / keyint_min=25 / scenecut=40 / intra_refresh=0 / rc_lookahead=40 / rc=2pass / mbtree=1 / bitrate=4433 / ratetol=1.0 / qcomp=0.60 / qpmin=10 / qpmax=51 / qpstep=4 / cplxblur=20.0 / qblur=0.5 / ip_ratio=1.40 / aq=1:1.00
Audio
ID : 2
Format : AAC
Format/Info : Advanced Audio Codec
Format profile : HE-AAC / LC
Codec ID : 40
Duration : 3mn 25s
Bit rate mode : Variable
Bit rate : 127 Kbps
Maximum bit rate : 128 Kbps
Channel(s) : 2 channels
Channel positions : Front: L R
Sampling rate : 48.0 KHz / 24.0 KHz
Compression mode : Lossy
Stream size : 3.10 MiB (3%)
Language : English

Related music:
David Guetta ft Akon-Sexy Chick HDTV 1080p-shadowCopy download David Guetta ft Akon-Sexy Chick HDTV 1080p-shadowCopy
Video
English
113.7 MB
4.4
/images/5/5/david-guetta-ft-akon-sexy-chick-hdtv-1080p-shadowcopy.jpg
Gorgon City ft Mnek-Ready for your love-HDTV 1080p-shadowCopy download Gorgon City ft Mnek-Ready for your love-HDTV 1080p-shadowCopy
Video
English
110.1 MB
4.2
/images/5/0/gorgon-city-ft-mnek-ready-for-your-love-hdtv-1080p-shadowcopy.jpg
Beyonce-xo HDTV 1080p-sc download Beyonce-xo HDTV 1080p-sc
Video
English
112.3 MB
4.4
/images/5/6/beyonce-xo-hdtv-1080p-sc.jpg
Chris Brown ft Nicki Minaj-Love More -shadowCopy HD.1080p download Chris Brown ft Nicki Minaj-Love More -shadowCopy HD.1080p
Video
English
103.8 MB
4.6
/images/5/7/chris-brown-ft-nicki-minaj-love-more-shadowcopy-hd1080p.jpg
Selena Gomez-Slow Down HDTV 480p-shadowCopy download Selena Gomez-Slow Down HDTV 480p-shadowCopy
Video
English
34.0 MB
4.1
/images/5/1/selena-gomez-slow-down-hdtv-480p-shadowcopy.jpg
Calvin Harris ft Ellie Goulding-I Need Your Love HDTV 480p-shadowCopy download Calvin Harris ft Ellie Goulding-I Need Your Love HDTV 480p-shadowCopy
Video
English
30.5 MB
4.7
/images/5/6/calvin-harris-ft-ellie-goulding-i-need-your-love-hdtv-480p-shadowcopy.jpg
David Guetta ft Akon-Sexy Chick HDTV 480p-shadowCopy download David Guetta ft Akon-Sexy Chick HDTV 480p-shadowCopy
Video
English
34.0 MB
4.4
/images/5/0/david-guetta-ft-akon-sexy-chick-hdtv-480p-shadowcopy.jpg