Files 42316
» » Eminem Ft Rihanna - Love The Way You Lie 1080p Music Video
Language: English
Size: 83.4 MB
Votes: 817
Downloaded: 45
Category: Video
Format: MP3, FLAC
4.1

File list

  • Eminem Ft. Rihanna - Love The Way You Lie [Music Video] 1080p [Sbyky].mp4 (83.4 MB)

Видеоклип – Eminem - Love The Way You Lie ft. Rihanna Just gonna stand there and watch me burn Well, that's all right Because I like the way it hurts Just gonna stand there and hear me cry Well, that's all right Because I love the way you lie I love th. .

Видеоклип – Eminem - Love The Way You Lie ft. Rihanna. Клип Eminem - Love The Way You Lie ft. Rihanna смотреть онлайн, скачать бесплатно на телефон, компьютер. Just gonna stand there and watch me burn Well, that's all right Because I like the way it hurts Just gonna stand there and hear me cry Well, that's all right Because I love the way you lie I love the way you lie. I can't tell you what it really is I can only tell you what it feels like And right now there's a steel knife in my windpipe I can't breathe, but I still fight while I can fight As long as the wrong feels right, it's like I'm in flight High off her love, drunk.

Akcent feat Liv - Faina HD (Official Video). Eminem ft. Rihanna - Love The Way You Lie HD (Official Video).

Animation & Cartoons Arts & Music Community Video Computers & Technology Cultural & Academic Films . News & Public Affairs Spirituality & Religion Sports Videos Television Videogame Videos Vlogs Youth Media.

Animation & Cartoons Arts & Music Community Video Computers & Technology Cultural & Academic Films Ephemeral Films Movies. audio All Audio latest This Just In Grateful Dead Netlabels Old Time Radio 78 RPMs and Cylinder Recordings. Top. Audio Books & Poetry Community Audio Computers & Technology Music, Arts & Culture News & Public Affairs Non-English Audio Radio Programs. Librivox Free Audiobook.

Love The Way You Lie (made famous by Eminem feat Rihanna). Открывайте новую музыку каждый день. Лента с персональными рекомендациями и музыкальными новинками, радио, подборки на любой вкус, удобное управление своей коллекцией. Миллионы композиций бесплатно и в хорошем качестве.


General
Complete name : Eminem Ft. Rihanna - Love The Way You Lie [Music Video] 1080p [Sbyky].mp4
Format : MPEG-4
Format profile : Base Media / Version 2
Codec ID : mp42
File size : 83.4 MiB
Duration : 4mn 26s
Overall bit rate mode : Variable
Overall bit rate : 2 620 Kbps
Encoded date : UTC 2013-04-08 14:01:16
Tagged date : UTC 2013-04-08 14:01:16
Video
ID : 1
Format : AVC
Format/Info : Advanced Video Codec
Format profile : [email protected]
Format settings, CABAC : Yes
Format settings, ReFrames : 1 frame
Codec ID : avc1
Codec ID/Info : Advanced Video Coding
Duration : 4mn 26s
Bit rate : 2 425 Kbps
Maximum bit rate : 5 389 Kbps
Width : 1 920 pixels
Height : 1 080 pixels
Display aspect ratio : 16:9
Frame rate mode : Constant
Frame rate : 23.976 fps
Color space : YUV
Chroma subsampling : 4:2:0
Bit depth : 8 bits
Scan type : Progressive
Bits/(Pixel*Frame) : 0.049
Stream size : 77.2 MiB (93%)
Tagged date : UTC 2013-04-08 14:01:45
Audio
ID : 2
Format : AAC
Format/Info : Advanced Audio Codec
Format profile : LC
Codec ID : 40
Duration : 4mn 26s
Bit rate mode : Variable
Bit rate : 192 Kbps
Maximum bit rate : 202 Kbps
Channel(s) : 2 channels
Channel positions : Front: L R
Sampling rate : 44.1 KHz
Compression mode : Lossy
Stream size : 6.11 MiB (7%)
Title : IsoMedia File Produced by Google, 5-11-2011
Encoded date : UTC 2013-04-08 14:01:37
Tagged date : UTC 2013-04-08 14:01:45
Shared By Sbyky

Related music:
Eminem Ft Rihanna - The Monster 720p download Eminem Ft Rihanna - The Monster 720p
Video
English
57.4 MB
4.9
/images/5/3/eminem-ft-rihanna-the-monster-720p-.jpg
J Cole - Work Out 1080p Music Video download J Cole - Work Out 1080p Music Video
Video
English
153.3 MB
4.1
/images/5/3/j-cole-work-out-1080p-music-video-.jpg
Eminem - Rap God 1080p download Eminem - Rap God 1080p
Video
English
146.1 MB
4.9
/images/5/3/eminem-rap-god-1080p-.jpg
Little Mix - Little Me 1080p Music Video download Little Mix - Little Me 1080p Music Video
Video
English
74.7 MB
4.9
/images/5/1/little-mix-little-me-1080p-music-video-.jpg
INNA - Wow 1080p Music Video download INNA - Wow 1080p Music Video
Video
English
152.3 MB
4.0
/images/noimage.jpg
Eminem Ft Rihanna - The Monster 1080p download Eminem Ft Rihanna - The Monster 1080p
Video
English
108.0 MB
4.7
/images/5/3/eminem-ft-rihanna-the-monster-1080p-.jpg
Wiz Khalifa Ft Akon - Let It Go 1080p Music Video download Wiz Khalifa Ft Akon - Let It Go 1080p Music Video
Video
English
117.5 MB
4.2
/images/5/6/wiz-khalifa-ft-akon-let-it-go-1080p-music-video-.jpg
Stromae - Papaoutai 1080p Music Video download Stromae - Papaoutai 1080p Music Video
Video
French
83.4 MB
4.5
/images/5/3/stromae-papaoutai-1080p-music-video-.jpg
Drake Ft Rihanna - Take Care 1080p Music Video download Drake Ft Rihanna - Take Care 1080p Music Video
Video
English
52.6 MB
4.5
/images/5/6/drake-ft-rihanna-take-care-1080p-music-video-.jpg
Coldplay Ft Rihanna - Princess Of China 1080p Music Video download Coldplay Ft Rihanna - Princess Of China 1080p Music Video
Video
English
98.5 MB
4.8
/images/5/5/coldplay-ft-rihanna-princess-of-china-1080p-music-video-.jpg