Files 42316
» » Aadat Se Majboor - Full Song - H 264 - 720p DVDRip -AbhinavRocks Ladies vs Ricky Bahl
Language: Hindi
Size: 82.7 MB
Votes: 280
Downloaded: 11
Category: Video
Format: MP3, FLAC
4.5

File list

  • Aadat Se Majboor (Ladies vs Ricky Bahl) - Full Song - H.264 - 720p DVDRip ~~~AbhinavRocks {{-HKRG-}}.avi (82.7 MB)
  • If U Like My Work Then Like Me On Facebook.txt (0.0 KB)
  • Media Info.txt (3.3 KB)
  • Please Don't Forget To Say Thanks To.txt (0.0 KB)
  • Torrent Downloaded from.txt (0.3 KB)
  • tracked_by_h33t_com.txt (0.0 KB)

Aadat Se Majboor Lyrics. Bachke zara, shaitaniyaan meri, oh Ladies, Karke zara, zara, beimaaniyaan meri, oh Ladies, karu seena zori seena zori, tumhe ho na ho manzoor, phir dil ke chori, dil ki chori, hai mera kya kasoor, kya karoon oh ladies, Main hoon aadat se majboor.

Aadat Se Majboor Lyrics. huzoor, huzoor, main hoon aadat se majboor

Video Info :: ID : 0 Format : AVC Format/Info : Advanced Video Codec Format profile : Format settings, CABAC : Yes Format settings, ReFrames : 2 frames Codec ID : H264 Duration : 10s 0ms Bit rate : 2 15. .

Video Info :: ID : 0 Format : AVC Format/Info : Advanced Video Codec Format profile : Format settings, CABAC : Yes Format settings, ReFrames : 2 frames Codec ID : H264 Duration : 10s 0ms Bit rate : 2 158 Kbps Width : 1 280 pixels Height : 544 pixels Display aspect ratio : . 5:1 Frame rate : 3. 00 fps Color space : YUV Chroma subsampling . Aadat Se Majboor (Ladies vs Ricky Bahl) - Full Song - . 64 - 720p DVDRip ~~~AbhinavRocks {{-HKRG-}}. txt (. KB). Media Info. Please Don't Forget To Say Thanks T. xt (. Torrent Downloaded from.

Ladies vs Ricky Bahl HD Songs 1. "Jazba" (HD) Full Song - Ladies vs Ricky Bahl - Shilpa Rao 04:39 2. "Aadat Se Majboor" (HD) Full Song - Ladies vs Ricky Bahl - Benny Dayal, Ranveer Singh 04:38 3. "Thug Le. "Thug Le" (HD) Full Song - Ladies vs Ricky Bahl - Vishal Dadlani, Shweta Pandit 03:39 4. "Jigar Da Tukda" (HD) Full Song - Ladies vs Ricky Bahl - Salim. Aadat Se Majboor - "Ladies vs Ricky Bahl (2011) HD 1080p BluRay Full Video Song.

This song 'Aadat Se Majboor' is from the movie 'Ladies Vs Ricky Bahl'. Starring Ranveer Singh, Anushka Sharma, Parineeta Chopra. And sung by Benny Dayal & Ranveer Singh. richy bhai, richay bhai vs ladies, richy bhai and ladies, Ranveer Singh, Anushka Sharma, Parineeta Chopra, Maneesh Sharma, Salim Merchant, Sulaiman Merchant. Ladies Vs Ricky Bahl More Content. Ladies Vs Ricky Bahl HD Videos.

Ladies & Ricky Bahl скачать mp3 в хорошем качестве, либо слушайте песню Ranveer Singh - Thug Le, Ladies & Ricky Bahl - Thug Le, Shipla Rao, Shweta Pandit - Thug Le.Ladies vs. Ricky Bahl ost – Aadat Se Majboor.

Ladies & Ricky Bahl скачать mp3 в хорошем качестве, либо слушайте песню Ranveer Singh - Thug Le, Ladies & Ricky Bahl - Thug Le, Shipla Rao, Shweta Pandit - Thug Le (Ladies Vs Ricky Bahl), Salim Merchant, Shardha Pandit - Jigar Da Tukda ( Ladies Vs Ricky Bahl), а также рингтоны на звонок и все новые треки. Леди против Рикки Бахла, Ladies vs. Ricky Bahl 2011 – Jigar Da Tukda. Ladies Vs Ricky Bahl (2011)Instrumental – Fatal Attraction. OST ЛЕДИ ПРОТИВ РИККИ БАХЛА, LADIES VS. RICKY BAHL (2011) – Jigar Da Tukda.

01 – Aadat Se Majboor.

download like song i. P3 format ← download video converted i. P4 format ← download video converted i. VI format ← download video WITHOUT conversion. Stormzy - shut up. Brand new!!! Ishawna "everybody need som. Adele - "When We Were Young" Cover by T.




General Info ::
Format : AVI
Format/Info : Audio Video Interleave
File size : 82.7 MiB
Duration : 4mn 38s
Overall bit rate : 2 489 Kbps
Video Info ::
ID : 0
Format : AVC
Format/Info : Advanced Video Codec
Format profile : [email protected]
Format settings, CABAC : Yes
Format settings, ReFrames : 2 frames
Codec ID : H264
Duration : 10s 0ms
Bit rate : 2 158 Kbps
Width : 1 280 pixels
Height : 544 pixels
Display aspect ratio : 2.35:1
Frame rate : 30.000 fps
Color space : YUV
Chroma subsampling : 4:2:0
Bit depth : 8 bits
Scan type : Progressive
Bits/(Pixel*Frame) : 0.103
Stream size : 71.7 MiB (87%)
Audio Info ::
ID : 1
Format : MPEG Audio
Format version : Version 1
Format profile : Layer 3
Codec ID : 55
Codec ID/Hint : MP3
Duration : 4mn 38s
Bit rate mode : Constant
Bit rate : 320 Kbps
Channel(s) : 2 channels
Sampling rate : 48.0 KHz
Compression mode : Lossy
Stream size : 10.6 MiB (13%)











Related music:
Maher Zain - Number One For Me 720p Music Video download Maher Zain - Number One For Me 720p Music Video
Video
English
72.8 MB
4.8
/images/5/8/maher-zain-number-one-for-me-720p-music-video-.jpg
Connect-R - Vara nu dorm 2012-MFA download Connect-R - Vara nu dorm 2012-MFA
Video
English
141.6 MB
4.5
/images/5/1/connect-r-vara-nu-dorm-2012-mfa.jpg
Ik Tu Hi Tu Hi - Mausam 720P HD Video Song 2011 download Ik Tu Hi Tu Hi - Mausam 720P HD Video Song 2011
Video
Hindi
86.3 MB
4.4
/images/5/7/ik-tu-hi-tu-hi-mausam-720p-hd-video-song-2011.jpg
Little Mix - Little Me 720p Music Video download Little Mix - Little Me 720p Music Video
Video
English
37.9 MB
4.1
/images/5/5/little-mix-little-me-720p-music-video-.jpg
Top Of The Pops 2011 - H 264 - 480p -AbhinavRocks Mashup download Top Of The Pops 2011 - H 264 - 480p -AbhinavRocks Mashup
Video
English
44.9 MB
4.6
/images/5/4/top-of-the-pops-2011-h-264-480p-abhinavrocks-mashup.jpg