Files 42316
» » Jaan Pehechaan Ho - Gumnaam DVDRip big dad e 1965
Language: Hindi
Size: 52.8 MB
Votes: 155
Downloaded: 25
Category: Video
Format: MP3, FLAC
4.6

File list

  • Jaan Pehechaan Ho - Gumnaam (1965)[DVDRip][big_dad_e].avi (52.4 MB)
  • filesharing_not_illegal_yet.jpg (258.9 KB)
  • vishnu.jpg (159.7 KB)
  • big_dad_e.jpg (17.1 KB)
  • Torrent downloaded from Demonoid.com.txt (0.0 KB)
  • tracked_by_h33t_com.txt (0.0 KB)

Jaan Pehechaan Ho Gumnaam Hindi Hindu Bollywood Ghost World big dad e. Jaan Pehechan Ho was a popular song from the 1965 movie Gumnaam which was directed by Raja Nawathe, produced by N N Sippy and starring Manoj Kumar & Nanda (actress).

Jaan Pehechaan Ho Gumnaam Hindi Hindu Bollywood Ghost World big dad e. The music was composed by Shankar Jaikishan, with lyrics by Anand Bakshi. It was sung by Mohammed Rafi.

info mnaam-(1965) Music. to J n Pehech n Ho - Gumn m (1965) Music. am Jaan Pehechaan Ho - Gumnaam (1965) Music. ch mnaam-(1965) Movies.

Manoj Kumar, Mehmood, Helen Gumnaam Bollywood Trailer. Helen attacked Gumnaam Bollywoood Scene. Gumnaam Hai Koi - Manoj Kumar, Nanda, Helen Lata Mangeshkar Gumnaam Bollywood Song. Gumnaam (1965) Trailer.

Jaan Pehechaan Ho. Artist: Mohammed Rafi. Album: Rough Guide to Psychedelic Bollywood, 2013. Daddy Yankee Con Calma (feat. Song from super hit Suspense Thriller Gumnaam (1965), starring Manoj kumar, Nanda, Pran, Dhumal, Mehmood, Helen, Madan Puri, Tarun Bose, WINNER OF FILMFARE AWARD: Best Supporting Actor - Mehmood, Best Supporting Actress - Helen Music Director : Shankar Jaikishan, Director : Raja Nawathe Singer: Mohammed Rafi.

Gumnaam is a 1965 Indian suspense thriller film directed by Raja Nawathe, starring Manoj Kumar, Nanda, Pran .

Gumnaam is a 1965 Indian suspense thriller film directed by Raja Nawathe, starring Manoj Kumar, Nanda, Pran, Helen and Mehmood. Eight people are trapped on an island when their plane abandons them. They find a large mansion whose butler is expecting them. Everybody knows this film now thanks to the insane musical number, Jaan Pehechaan Ho featured in Ghost World, but what they probably don't realize is that the rest of the movie is an instant cure for insomnia. Ostensibly a murder mystery, the plot moves at a glacial pace in between the occasional upbeat dance number.

Title: Gumnaam (1965). The lighting of the drums in the close-up in the "Jaan Pehechaan Ho" sequence is different from the lighting in the rest of the scene.

Jaan Pehechan Ho" (transl. Lets Know Each Other") is an Indian rock & roll Bollywood song from the 1965 Bollywood film Gumnaam, which was sung by Mohammed Rafi and composed by duo Shankar Jaikishan. The song and music video, starting Laxmi Chhaya, has been widely successful internationally, and has gained cult status. The song's music video was shot in a disco and features Laxmi Chhaya as the main dancer. The psychedelic dance choreography was by Herman Benjamin, who is also singing the song onscreen.


Jaan Pehechan Ho Music Video from Gumnaam
Jaan Pehechan Ho was a popular song from the 1965 movie Gumnaam which was directed by Raja Nawathe, produced by N N Sippy and starring Manoj Kumar & Nanda (actress). The music was composed by Shankar Jaikishan, with lyrics by Anand Bakshi. It was sung by Mohammed Rafi. The song's video introduces the movie to the audiences. It was shot in a disco and features Laxmi Chhaya. The song also appears in the opening credits of the 2001 movie Ghost World.
Jaan Pehechan Ho, Jeena Aasaan Ho,
Dil Ko Churane Wale Aakh Na Churaavo, Naam Tho Bataavo
Meaning
Lets get to know each other, it will make life easier, oh you heart stealer, don’t shy away, tell me your name!
- Raghav from Meri Awaaz Suno
Media Info:
General
Complete name : J:SeedingJaan Pehechaan Ho - Gumnaam [DVDRip][big_dad_e]Jaan Pehechaan Ho - Gumnaam [DVDRip][big_dad_e].avi
Format : AVI
Format/Info : Audio Video Interleave
File size : 52.4 MiB
Duration : 5mn 27s
Overall bit rate : 1 340 Kbps
Video
ID : 0
Format : MPEG-4 Visual
Format profile : [email protected]
Format settings, BVOP : No
Format settings, QPel : No
Format settings, GMC : No warppoints
Format settings, Matrix : Default (H.263)
Codec ID : DIVX
Codec ID/Info : Project Mayo
Codec ID/Hint : DivX 4
Duration : 5mn 27s
Bit rate : 1 200 Kbps
Width : 720 pixels
Height : 480 pixels
Display aspect ratio : 4:3
Frame rate : 23.976 fps
Standard : NTSC
Color space : YUV
Chroma subsampling : 4:2:0
Bit depth : 8 bits
Scan type : Progressive
Bits/(Pixel*Frame) : 0.145
Stream size : 46.9 MiB (89%)
Writing library : avc2.0.11.1110
Audio
ID : 1
Format : MPEG Audio
Format version : Version 1
Format profile : Layer 3
Mode : Joint stereo
Mode extension : MS Stereo
Codec ID : 55
Codec ID/Hint : MP3
Duration : 5mn 27s
Bit rate mode : Constant
Bit rate : 128 Kbps
Channel(s) : 2 channels
Sampling rate : 48.0 KHz
Stream size : 5.00 MiB (10%)
Alignment : Aligned on interleaves
Interleave, duration : 24 ms (0.58 video frame)
Writing library : LAME3.96.1
File Scan:
Malwarebytes' Anti-Malware 1.46
www.malwarebytes.org
Database version: 5041
Windows 5.1.2600 Service Pack 3
Internet Explorer 8.0.6001.18702
11/4/2010 1:47:46 AM
mbam-log-2010-11-04 (01-47-46).txt
Scan type: Quick scan
Objects scanned: 0
Time elapsed: 6 second(s)
Memory Processes Infected: 0
Memory Modules Infected: 0
Registry Keys Infected: 0
Registry Values Infected: 0
Registry Data Items Infected: 0
Folders Infected: 0
Files Infected: 0
Memory Processes Infected:
(No malicious items detected)
Memory Modules Infected:
(No malicious items detected)
Registry Keys Infected:
(No malicious items detected)
Registry Values Infected:
(No malicious items detected)
Registry Data Items Infected:
(No malicious items detected)
Folders Infected:
(No malicious items detected)
Files Infected:
(No malicious items detected)
ALWAYS SEED & THANKS SEEDERS!

Related music:
jab Tak Hai Jaan 2012 Bluray 1080p x264 DTS All Music Video download jab Tak Hai Jaan 2012 Bluray 1080p x264 DTS All Music Video
Other
Hindi
4.0 GB
4.9
/images/5/8/jab-tak-hai-jaan-2012-bluray-1080p-x264-dts-all-music-video.jpg
Saans Jab tak hai jaan 2012 1080p HD Mys download Saans Jab tak hai jaan 2012 1080p HD Mys
DVD
English
82.7 MB
4.5
/images/5/3/saans-jab-tak-hai-jaan-2012-1080p-hd-mys.jpg
Damadamm - 2011 Bollywood Movie Mp3 Songs -=Mp3BoXx=- download Damadamm - 2011 Bollywood Movie Mp3 Songs -=Mp3BoXx=-
MP3
Hindi
97.3 MB
4.1
/images/5/7/damadamm-2011-bollywood-movie-mp3-songs-3dmp3boxx3d-.jpg
Challa - Song - Jab Tak Hai Jaan 720p Niliv Tmrg download Challa - Song - Jab Tak Hai Jaan 720p Niliv Tmrg
Video
Hindi
43.1 MB
4.8
/images/5/7/challa-song-jab-tak-hai-jaan-720p-niliv-tmrg.jpg
Apartment - Hindi - 2010 - 320Kbps BTU download Apartment - Hindi - 2010 - 320Kbps BTU
MP3
Hindi
68.5 MB
4.2
/images/5/3/apartment-hindi-2010-320kbps-btu.jpg
Jiya Re - - HD 720p - $SmarTGuY$ Jab Tak Hai Jaan download Jiya Re - - HD 720p - $SmarTGuY$ Jab Tak Hai Jaan
Video
English
40.7 MB
4.2
/images/5/9/jiya-re--hd-720p-24smartguy24-jab-tak-hai-jaan.jpg
Damadamm- 320 Kbps- - Mp3ViLLe 2011 download Damadamm- 320 Kbps- - Mp3ViLLe 2011
MP3
Hindi
157.4 MB
4.8
/images/5/7/damadamm-320-kbps-mp3ville-2011.jpg
I LOVE NY 2013 Hindi Move Song download I LOVE NY 2013 Hindi Move Song
Album
English
53.4 MB
4.5
/images/5/7/i-love-ny-2013-hindi-move-song.jpg