Files 42316
» » Stromae - Papaoutai 1080p Music Video
Language: French
Size: 83.4 MB
Votes: 435
Downloaded: 69
Category: Video
Format: MP3, FLAC
4.5

File list

  • Stromae - Papaoutai [Music Video] 1080p [Sbyky].mp4 (83.4 MB)

One Direction - Still The One Stromae - Papaoutai (Full Version) (Clip Officiel).

One Direction - Still The One. Stromae - Papaoutai (Full Version) (Clip Officiel).

Spirituality & Religion Sports Videos Television Videogame Videos Vlogs Youth Media American Studies 10AC, 001 - Spring 2012. audio All Audio latest This Just In Grateful Dead Netlabels Old Time Radio 78 RPMs and Cylinder Recordings. Top. Audio Books & Poetry Community Audio Computers & Technology Music, Arts & Culture News & Public Affairs Non-English Audio Radio Programs. Librivox Free Audiobook.

Stromae - Papaoutai (M6 Clips 1080i DD. ) - art-v-k. Video: Advanced Video Codec (. 64) Video . S) 1920x1080 2. 00 fps 5205 Kbps Audio: Dolby Digital AC3 48000Hz Stereo 384 Kbps (6 Channel) 03:50 162 MB. Hidden content cannot be quoted.

ამოიწერე განახლებები. Simply Falling - Iyeoka (Official Music Video). ემდეგი ვიდეო ჩაირთვება 10 წამში. ემდეგი ვიდეო გაუქმება. musics : 1. Believer (Murder On The Orient Express Trailer Song). 33. Ash Riser - You Know I'm No Good (Cover).

Papaoutai : Tribute to Stromae, Cut - Ron Page. Открывайте новую музыку каждый день. Papaoutai : Tribute to Stromae, Cut. Лента с персональными рекомендациями и музыкальными новинками, радио, подборки на любой вкус, удобное управление своей коллекцией. Миллионы композиций бесплатно и в хорошем качестве. Исполнитель: Ron Page.

Chords for Stromae - Papaoutai (audio) HD 1080p. Our goal is to help musicians like you to learn to play the music they love. Play along with guitar, ukulele, or piano with interactive chords and diagrams. Includes transpose, capo hints, changing speed and much more. We can only maintain and improve Chordify if paying members keep supporting us. Become a paying member too!


General
Complete name : Stromae - Papaoutai [Music Video] 1080p [Sbyky].mp4
Format : MPEG-4
Format profile : Base Media / Version 2
Codec ID : mp42
File size : 83.4 MiB
Duration : 3mn 52s
Overall bit rate mode : Variable
Overall bit rate : 3 009 Kbps
Encoded date : UTC 2013-05-30 15:45:14
Tagged date : UTC 2013-05-30 15:45:14
Video
ID : 1
Format : AVC
Format/Info : Advanced Video Codec
Format profile : [email protected]
Format settings, CABAC : Yes
Format settings, ReFrames : 1 frame
Codec ID : avc1
Codec ID/Info : Advanced Video Coding
Duration : 3mn 52s
Bit rate : 2 814 Kbps
Maximum bit rate : 6 143 Kbps
Width : 1 920 pixels
Height : 1 080 pixels
Display aspect ratio : 16:9
Frame rate mode : Constant
Frame rate : 25.000 fps
Color space : YUV
Chroma subsampling : 4:2:0
Bit depth : 8 bits
Scan type : Progressive
Bits/(Pixel*Frame) : 0.054
Stream size : 78.0 MiB (94%)
Tagged date : UTC 2013-05-30 15:45:18
Audio
ID : 2
Format : AAC
Format/Info : Advanced Audio Codec
Format profile : LC
Codec ID : 40
Duration : 3mn 52s
Bit rate mode : Variable
Bit rate : 192 Kbps
Maximum bit rate : 203 Kbps
Channel(s) : 2 channels
Channel positions : Front: L R
Sampling rate : 44.1 KHz
Compression mode : Lossy
Stream size : 5.32 MiB (6%)
Title : IsoMedia File Produced by Google, 5-11-2011
Encoded date : UTC 2013-05-30 15:45:16
Tagged date : UTC 2013-05-30 15:45:18
Shared By Sbyky

Related music:
Pitbull Ft Ke$ha - Timber 1080p Music Video download Pitbull Ft Ke$ha - Timber 1080p Music Video
Video
English
85.8 MB
4.4
/images/5/7/pitbull-ft-ke24ha-timber-1080p-music-video-.jpg
PSY - Gentleman 1080p Music Video download PSY - Gentleman 1080p Music Video
Video
English
145.3 MB
4.7
/images/5/2/psy-gentleman-1080p-music-video-.jpg
J Cole - Work Out 1080p Music Video download J Cole - Work Out 1080p Music Video
Video
English
153.3 MB
4.1
/images/5/3/j-cole-work-out-1080p-music-video-.jpg
Little Mix - Little Me 1080p Music Video download Little Mix - Little Me 1080p Music Video
Video
English
74.7 MB
4.9
/images/5/1/little-mix-little-me-1080p-music-video-.jpg
INNA - Wow 1080p Music Video download INNA - Wow 1080p Music Video
Video
English
152.3 MB
4.0
/images/noimage.jpg
Wiz Khalifa Ft Akon - Let It Go 1080p Music Video download Wiz Khalifa Ft Akon - Let It Go 1080p Music Video
Video
English
117.5 MB
4.2
/images/5/6/wiz-khalifa-ft-akon-let-it-go-1080p-music-video-.jpg
Stromae - Papaoutai 720p Music Video download Stromae - Papaoutai 720p Music Video
Video
French
41.8 MB
4.6
/images/5/0/stromae-papaoutai-720p-music-video-.jpg
Passenger - Let Her Go 1080p Music Video download Passenger - Let Her Go 1080p Music Video
Video
English
86.7 MB
4.2
/images/5/0/passenger-let-her-go-1080p-music-video-.jpg