Files 42316
» » Fall Out Boy Ft Courtney Love - Rat A Tat 720p Music Video
Language: English
Size: 61.3 MB
Votes: 885
Downloaded: 15
Category: Video
Format: MP3, FLAC
4.2

File list

  • Fall Out Boy Ft. Courtney Love - Rat A Tat [Music Video] 720p [Sbyky].mp4 (61.3 MB)

Здесь вы можете прослушать песню Fall Out Boy - Rat A Tat (Feat. Fall Out Boy - My Songs Know What You Did In The Dark (Original). Fall Out Boy - Just One Yesterday (Ft.

Здесь вы можете прослушать песню Fall Out Boy - Rat A Tat (Feat. Courtney Love) онлайн в плеере бесплатно. Слушай музыку только в хорошем качестве. Foxes). Fall Out Boy - Centuries (Feat.

Rat a tat tat Rat a tat tat tat hey If my love is a weapon There's no second guessing when I say Rat a tat tat Rat a tat tat tat hey If my heart is a grenade You pull the pin and say: We're all fighting growing old We're all fighting growing old In the hopes Of a few minutes more To get on St. Peter's list But you need to lower your standards Cause it's never getting any better than this

Группа Fall Out Boy и Courtney Love в совместном видео на песню Rat A Tat (2014).

Группа Fall Out Boy и Courtney Love в совместном видео на песню Rat A Tat (2014). 2014Написано вRockМетки: Courtney Love, Fall Out Boy 1 244. Навигация по записям. Предыдущая запись Предыдущая запись: Lily Allen – Our Time. Следующая запись Следующая запись: DJ Cassidy feat. Robin Thicke, Jessie J – Calling All Hearts.

Courtney Love скачать в mp3 на телефон или слушайте песню Fall Out Boy - The Carpal Tunnel Of Love, Fall Out Boy - Love, Sex, Death, Fall Out Boy - The Carpal Tunnel Of Love, Fall Out Boy - Love Will Tear Us Apart, Fall Out Boy feat.

Fall Out Boy. Alternative. More By Fall Out Boy. 2014 The Island Def Jam Music Group. See All. America's Suitehearts (Exclusive Video Album). I Don't Care (Exclusive Video Album).

На MuzTron вы можете прослушать онлайн песню Fall Out Boy - Rat A Tat F. Tell That Mick He Just Made My List Of Things To D Fall Out Boy. 3:31. American Made Fall Out Boy.

На MuzTron вы можете прослушать онлайн песню Fall Out Boy - Rat A Tat Ft. Courtney Love в хорошем качестве бесплатно и без регистрации.


General
Complete name : Fall Out Boy Ft. Courtney Love - Rat A Tat [Music Video] 720p [Sbyky].mp4
Format : MPEG-4
Format profile : Base Media
Codec ID : isom
File size : 61.3 MiB
Duration : 4mn 42s
Overall bit rate mode : Variable
Overall bit rate : 1 822 Kbps
Encoded date : UTC 2014-03-09 22:43:42
Tagged date : UTC 2014-03-09 22:43:42
Video
ID : 1
Format : AVC
Format/Info : Advanced Video Codec
Format profile : [email protected]
Format settings, CABAC : Yes
Format settings, ReFrames : 3 frames
Codec ID : avc1
Codec ID/Info : Advanced Video Coding
Duration : 4mn 42s
Duration_LastFrame : -41ms
Bit rate : 1 693 Kbps
Width : 1 280 pixels
Height : 720 pixels
Display aspect ratio : 16:9
Frame rate mode : Constant
Frame rate : 23.976 fps
Color space : YUV
Chroma subsampling : 4:2:0
Bit depth : 8 bits
Scan type : Progressive
Bits/(Pixel*Frame) : 0.077
Stream size : 57.0 MiB (93%)
Encoded date : UTC 2014-03-09 22:43:42
Tagged date : UTC 2014-03-09 22:43:42
Audio
ID : 2
Format : AAC
Format/Info : Advanced Audio Codec
Format profile : LC
Codec ID : 40
Duration : 4mn 42s
Bit rate mode : Variable
Bit rate : 126 Kbps
Channel(s) : 2 channels
Channel positions : Front: L R
Sampling rate : 44.1 KHz
Compression mode : Lossy
Stream size : 4.22 MiB (7%)
Encoded date : UTC 2014-03-09 22:38:17
Tagged date : UTC 2014-03-09 22:38:17
Shared By Sbyky

Related music:
Fall Out Boy - Where Did The Party Go 720p Music Video download Fall Out Boy - Where Did The Party Go 720p Music Video
Video
English
46.7 MB
4.9
/images/5/7/fall-out-boy-where-did-the-party-go-720p-music-video-.jpg
Wanessa Ft Soulja Boy - Turn It Up 720p Music Video download Wanessa Ft Soulja Boy - Turn It Up 720p Music Video
Video
English
56.6 MB
4.2
/images/5/0/wanessa-ft-soulja-boy-turn-it-up-720p-music-video-.jpg
Justin Timberlake - Not A Bad Thing 720p Music Video download Justin Timberlake - Not A Bad Thing 720p Music Video
Video
English
59.2 MB
4.3
/images/5/2/justin-timberlake-not-a-bad-thing-720p-music-video-.jpg
Rico Love - Bitches Be Like 720p Music Video download Rico Love - Bitches Be Like 720p Music Video
Video
English
40.8 MB
4.5
/images/5/0/rico-love-bitches-be-like-720p-music-video-.jpg
Daddy Yankee - La Nueva Y La Ex 720p Music Video download Daddy Yankee - La Nueva Y La Ex 720p Music Video
Video
Spanish
33.2 MB
4.6
/images/5/5/daddy-yankee-la-nueva-y-la-ex-720p-music-video-.jpg
Redlight King - City Life 720p Music Video download Redlight King - City Life 720p Music Video
Video
English
29.1 MB
4.2
/images/5/7/redlight-king-city-life-720p-music-video-.jpg
Fall Out Boy Ft Courtney Love - Rat A Tat 1080p Music Video download Fall Out Boy Ft Courtney Love - Rat A Tat 1080p Music Video
Video
English
127.4 MB
4.2
/images/5/0/fall-out-boy-ft-courtney-love-rat-a-tat-1080p-music-video-.jpg