Files 42316
» » Pharrell Williams - Happy 720p Music Video
Language: English
Size: 34.0 MB
Votes: 905
Downloaded: 69
Category: Video
Format: MP3, FLAC
4.3

File list

  • Pharrell Williams - Happy [Music Video] 720p [Sbyky].MP4 (34.0 MB)

Happy from Despicable Me 2 - Pharrell Williams (2013) - Universal Pictures Film Music.

Happy from Despicable Me 2 - Pharrell Williams (2013) - Universal Pictures Film Music. Despicable Me 2. Writers.

Rock Mafia (Official Music Video). Eminem - Lose Yourself (Dirty) (Official Video) HD. 11. Cher Lloyd - I Wish ft. . 475 ნახვა. 36. Adele - Someone Like You. 81 ნახვა. 37. Britney Spears - Toxic.

Happy" is a song written, produced, and performed by American singer Pharrell Williams, released as the first and only single from the soundtrack album for the film Despicable Me 2 (2013). The song was first released on November 21, 2013,. The song was first released on November 21, 2013, alongside a long-form music video. The song was reissued on December 16, 2013, by Back Lot Music under exclusive license to Columbia Records, a division of Sony Music. The song also served as the lead single from Williams' second studio album, Girl (2014).

Scrobbling is when Last. fm tracks the music you listen to and automatically adds it to your music profile.

YouTube was created in mid February 2005 by three former PayPal employees. YouTube was created in mid February 2005 by three former PayPal employees. Scrobbling is when Last. Recent Listening Trend. Tuesday 11 June 2019.

Happy New Year 2011 From Tinie Tempah and Pharrell. NERD Yahoo Music Performance. Gesaffelstein & Pharrell Williams - Blast Off (Official Video).

обновлён 9 лет назад. Happy New Year 2011 From Tinie Tempah and Pharrell.

Lyrics by: Pharrell Williams. C): Sony Music Entertainment. Happy Pharrell Williams. 1 660 330. 54 827 715. P): Sony Music Entertainment. Format: Pop. Parameters: 2/00:03:51/C.

Name: Pharrell Williams - Happy Genre: Soul Year: 2013 Quality: DVD Video: MPEG, 720x480, 4403 Kbps Audio: PCM, 1536 Kbps . Download Pharrell Williams - Happy : Mega Rusfolder.

Download Pharrell Williams - Happy : Mega Rusfolder. Related Articles: Pharrell Williams - American Express New York 2014. VA - Despicable Me 2 (Original Motion Picture Soundtrack). Pharrell Williams - . Pharrell Williams) - Light Your Ass On Fire. Pharrell Williams – I Gotcha.


General
Complete name : Pharrell Williams - Happy [Music Video] 720p [Sbyky].MP4
Format : MPEG-4
Format profile : Base Media
Codec ID : isom
File size : 34.0 MiB
Duration : 4mn 7s
Overall bit rate mode : Variable
Overall bit rate : 1 153 Kbps
Encoded date : UTC 2014-01-10 06:09:00
Tagged date : UTC 2014-01-10 06:09:00
Video
ID : 1
Format : AVC
Format/Info : Advanced Video Codec
Format profile : [email protected]
Format settings, CABAC : Yes
Format settings, ReFrames : 3 frames
Codec ID : avc1
Codec ID/Info : Advanced Video Coding
Duration : 4mn 6s
Bit rate : 1 024 Kbps
Width : 1 280 pixels
Height : 720 pixels
Display aspect ratio : 16:9
Frame rate mode : Constant
Frame rate : 23.976 fps
Color space : YUV
Chroma subsampling : 4:2:0
Bit depth : 8 bits
Scan type : Progressive
Bits/(Pixel*Frame) : 0.046
Stream size : 30.2 MiB (89%)
Encoded date : UTC 2014-01-10 06:09:00
Tagged date : UTC 2014-01-10 06:09:00
Audio
ID : 2
Format : AAC
Format/Info : Advanced Audio Codec
Format profile : LC
Codec ID : 40
Duration : 4mn 7s
Bit rate mode : Variable
Bit rate : 126 Kbps
Channel(s) : 2 channels
Channel positions : Front: L R
Sampling rate : 44.1 KHz
Compression mode : Lossy
Stream size : 3.70 MiB (11%)
Encoded date : UTC 2014-01-10 06:08:56
Tagged date : UTC 2014-01-10 06:08:56
Shared By Sbyky

Related music:
Blue - Break My Heart 720p Music Video download Blue - Break My Heart 720p Music Video
Video
English
54.4 MB
4.1
/images/5/1/blue-break-my-heart-720p-music-video-.jpg
Kim Cesarion - Undressed 720p Music Video download Kim Cesarion - Undressed 720p Music Video
Video
English
32.9 MB
4.4
/images/5/9/kim-cesarion-undressed-720p-music-video-.jpg
Fall Out Boy - Where Did The Party Go 720p Music Video download Fall Out Boy - Where Did The Party Go 720p Music Video
Video
English
46.7 MB
4.9
/images/5/7/fall-out-boy-where-did-the-party-go-720p-music-video-.jpg
Wanessa Ft Soulja Boy - Turn It Up 720p Music Video download Wanessa Ft Soulja Boy - Turn It Up 720p Music Video
Video
English
56.6 MB
4.2
/images/5/0/wanessa-ft-soulja-boy-turn-it-up-720p-music-video-.jpg
Coldplay - Magic 720p Music Video download Coldplay - Magic 720p Music Video
Video
English
78.4 MB
4.2
/images/5/4/coldplay-magic-720p-music-video-.jpg
Arash Ft Helena - One Day 720p Music Video download Arash Ft Helena - One Day 720p Music Video
Video
English
43.6 MB
4.5
/images/5/3/arash-ft-helena-one-day-720p-music-video-.jpg
Neon Jungle - Welcome To The Jungle 720p Music Video download Neon Jungle - Welcome To The Jungle 720p Music Video
Video
English
52.1 MB
4.9
/images/5/9/neon-jungle-welcome-to-the-jungle-720p-music-video-.jpg