Files 42316
» » Will I Am ft Miley Cyrus-Feelin Myself HDTV 720p-shadowCopy
Language: English
Size: 50.0 MB
Votes: 022
Downloaded: 41
Category: Video
Format: MP3, FLAC
4.0

File list

  • Will.I.Am.ft.Miley.Cyrus-Feelin.Myself.HDTV.720p-shadowCopy.mp4 (50.0 MB)
  • Will.I.Am.ft.Miley.Cyrus-Feelin.Myself.HDTV.720p-shadowCopy.nfo (3.6 KB)

Video ID : 1 Format : AVC Format/Info : Advanced Video Codec Format profile : [email protected] 1 Format settings, CABAC : Yes Format settings, ReFrames : 4 frames Codec ID : avc1 Codec ID/Info : Advanced Video Coding Duration : 4mn 7s Bit rate : 1 522 Kbps Width : 1 280 pixels Height : 720 pixels Display aspect ratio : 16:9 Frame rate mode : Constant Frame rate

Video ID : 1 Format : AVC Format/Info : Advanced Video Codec Format profile : Format settings, CABAC : Yes Format settings, ReFrames : 4 frames Codec ID : avc1 Codec ID/Info : Advanced Video Coding Duration : 4mn 7s Bit rate : 1 522 Kbps Width : 1 280 pixels Height : 720 pixels Display aspect ratio : 16:9 Frame rate mode : Constant Frame rate : 2. 00.

OMG MILEY IS HOT AF HEREI just wish she would go back to the hip hop stuff cause the hippie stuff is getting . am ft miley ft wiz khafia feeling myself love this song my fave song gets me on party mood .

OMG MILEY IS HOT AF HEREI just wish she would go back to the hip hop stuff cause the hippie stuff is getting just a little out of hand. 4 years назад.

Miley Cyrus, French Montana, Wiz Khalifa, Mustard Feelin' Myself. faun feat einar selvik. lance powers love s just that way. blow my mind by davido and chris brown. markantonio rino cerrone. marvin andrea prezioso. cerrone mix. delusion fight for love.

You cannot download any of those files from here. Ella Marie Anal 1s, mxgs1014 2s, blazblue fitgirl 2s, JUFD-732 1s, deep chill 1s, you me her s1 1s, title: Fist Fight 2017 1s, naughtyamericavr 2s, iprevail 1s, Project.



Will.I.Am.ft.Miley.Cyrus-Feelin.Myself.HDTV.720p-shadowCopy
Format : MPEG-4
Format profile : Base Media
Codec ID : isom
File size : 50.0 MiB
Duration : 4mn 7s
Overall bit rate : 1 693 Kbps
Writing application : Lavf54.63.104
Video
ID : 1
Format : AVC
Format/Info : Advanced Video Codec
Format profile : [email protected]
Format settings, CABAC : Yes
Format settings, ReFrames : 4 frames
Codec ID : avc1
Codec ID/Info : Advanced Video Coding
Duration : 4mn 7s
Bit rate : 1 522 Kbps
Width : 1 280 pixels
Height : 720 pixels
Display aspect ratio : 16:9
Frame rate mode : Constant
Frame rate : 25.000 fps
Color space : YUV
Chroma subsampling : 4:2:0
Bit depth : 8 bits
Scan type : Progressive
Bits/(Pixel*Frame) : 0.066
Stream size : 45.0 MiB (90%)
Writing library : x264 core 123 r2189 35cf912
Encoding settings : cabac=1 / ref=3 / deblock=1:0:0 / analyse=0x3:0x133 / me=hex / subme=7 / psy=1 / psy_rd=1.00:0.00 / mixed_ref=1 / me_range=16 / chroma_me=1 / trellis=1 / 8x8dct=1 / cqm=0 / deadzone=21,11 / fast_pskip=1 / chroma_qp_offset=-2 / threads=4 / sliced_threads=0 / nr=0 / decimate=1 / interlaced=0 / bluray_compat=0 / constrained_intra=0 / bframes=5 / b_pyramid=2 / b_adapt=1 / b_bias=0 / direct=1 / weightb=1 / open_gop=0 / weightp=2 / keyint=250 / keyint_min=25 / scenecut=40 / intra_refresh=0 / rc_lookahead=40 / rc=2pass / mbtree=1 / bitrate=1522 / ratetol=1.0 / qcomp=0.60 / qpmin=10 / qpmax=51 / qpstep=4 / cplxblur=20.0 / qblur=0.5 / ip_ratio=1.40 / aq=1:1.00
Audio
ID : 2
Format : AAC
Format/Info : Advanced Audio Codec
Format profile : LC
Codec ID : 40
Duration : 4mn 7s
Bit rate mode : Constant
Bit rate : 160 Kbps
Channel(s) : 2 channels
Channel positions : Front: L R
Sampling rate : 48.0 KHz
Compression mode : Lossy
Stream size : 4.73 MiB (9%)
Language : English

Related music:
David Guetta ft Akon-Sexy Chick HDTV 1080p-shadowCopy download David Guetta ft Akon-Sexy Chick HDTV 1080p-shadowCopy
Video
English
113.7 MB
4.4
/images/5/5/david-guetta-ft-akon-sexy-chick-hdtv-1080p-shadowcopy.jpg
Gorgon City ft Mnek-Ready for your love-HDTV 1080p-shadowCopy download Gorgon City ft Mnek-Ready for your love-HDTV 1080p-shadowCopy
Video
English
110.1 MB
4.2
/images/5/0/gorgon-city-ft-mnek-ready-for-your-love-hdtv-1080p-shadowcopy.jpg
Ellie Goulding-Goodness Gracious HDTV 720p-shadowCopy download Ellie Goulding-Goodness Gracious HDTV 720p-shadowCopy
Video
English
55.1 MB
4.3
/images/5/5/ellie-goulding-goodness-gracious-hdtv-720p-shadowcopy.jpg
Gorgon City ft Mnek-Ready for your love-HDTV 720p-shadowCopy download Gorgon City ft Mnek-Ready for your love-HDTV 720p-shadowCopy
Video
English
63.0 MB
4.7
/images/5/2/gorgon-city-ft-mnek-ready-for-your-love-hdtv-720p-shadowcopy.jpg
Mike Will Made It ft Miley Cyrus Juicy J 23 1080p HDTV-shadowCopy download Mike Will Made It ft Miley Cyrus Juicy J 23 1080p HDTV-shadowCopy
Video
English
143.1 MB
4.8
/images/5/5/mike-will-made-it-ft-miley-cyrus-juicy-j-23-1080p-hdtv-shadowcopy.jpg
Selena Gomez-Slow Down HDTV 480p-shadowCopy download Selena Gomez-Slow Down HDTV 480p-shadowCopy
Video
English
34.0 MB
4.1
/images/5/1/selena-gomez-slow-down-hdtv-480p-shadowcopy.jpg
Calvin Harris ft Ellie Goulding-I Need Your Love HDTV 480p-shadowCopy download Calvin Harris ft Ellie Goulding-I Need Your Love HDTV 480p-shadowCopy
Video
English
30.5 MB
4.7
/images/5/6/calvin-harris-ft-ellie-goulding-i-need-your-love-hdtv-480p-shadowcopy.jpg
David Guetta ft Akon-Sexy Chick HDTV 480p-shadowCopy download David Guetta ft Akon-Sexy Chick HDTV 480p-shadowCopy
Video
English
34.0 MB
4.4
/images/5/0/david-guetta-ft-akon-sexy-chick-hdtv-480p-shadowcopy.jpg