Files 42316
» » Mariah Carey - My All HQ x264-MP3 DVDRip h33t mattlb0619 1998
Language: English
Size: 63.3 MB
Votes: 951
Downloaded: 49
Category: Video
Format: MP3, FLAC
4.7

File list

  • Mariah Carey - My All(1998) [HQ][x264-MP3] [DVDRip][h33t][mattlb0619].mkv (63.3 MB)
  • release.nfo (6.4 KB)
  • release.txt (6.4 KB)
  • tracked_by_h33t_com.txt (0.0 KB)

Uploaded By mattlb0619.

Uploaded By mattlb0619. Files: Mariah Carey - My All(1998) .mkv (6. MB). release. nfo (. KB). txt (. tracked by h33t com.

info Mariah-Carey-My-All(1998)- Music. You cannot download any of those files from here. to M ri h C rey - My All(1998) Music. am Mariah Carey - My All(1998) Music. ch Mariah-Carey-My-All(1998)- Music.

Get this torrent PLAY/STREAM TORRENT

Get this torrent PLAY/STREAM TORRENT.

Uploader: mattlb0619. Torrent added: 2010-06-21 17:09. ExtraTorrent - Cpasbien - LibertVF - LibertyLand- HDS- Zone telechargement- Torrent9 2006-2019 ExtraTorrents.

Mariah Carey- My All. вы, как далекая звезда, но я отдал бы все за вашу любовь Mariah Carey My All /Stay A While (Live Soul Train Awards 1998).

Mariah Carey★ - My All. вы, как далекая звезда, но я отдал бы все за вашу любовь. Mariah Carey My All /Stay A While (Live Soul Train Awards 1998). play) (pause) (download) (fb) (vk) (tw).

Torrent Downloads Music Mariah Carey -. And Get Protected Today with 6 Months FREE VPN! Torrent info.

Torrent Downloads Music Mariah Carey - Rate this torrent + -. Mariah Carey - Download Anonymously! And Get Protected Today with 6 Months FREE VPN! Torrent info.

Sookhow - Mariah Carey Mariah Carey, 2017 00:10. Alta Marea - My All Basi Musicali: Mariah Carey (Backing Tracks Altamarea), 2010 03:50. Beginnings - My All The Very Best of Mariah Carey, 2015 03:45

Sookhow - Mariah Carey Mariah Carey, 2017 00:10. Beginnings - My All The Very Best of Mariah Carey, 2015 03:45. Best Movie Soundtracks, Film Songs, Soundtrack 2016, The Musicals, TV Theme Players - When You Believe The Best Movie Songs, 2015 04:31. Judson Mancebo - My All Babies Love Mariah Carey, 2009 03:43. BFM Hits - My All Karaoke Mariah Carey Hits, 2013 03:45. APM Karaoke Party, Jeff Basile, Peter Pupping - Moonlight in Vermont The Very Thought of You, 2002 05:17.

Best songs and music of artist Mariah Carey. Download mp3, listen online for free, on your phone or computer. Following her marriage to Sony Music head Tommy Mottola, Carey became the label's highest-selling act with the albums Music Box, Merry Christmas, and Daydream. These albums spawned a string of successful singles, including the holiday track "All I Want for Christmas Is You" as well as "One Sweet Day", which became the longest-running . Mariah Carey - All I Want For Christmas Is You (04:02, 320Kb/s).


Work
Ripped direct from VOB.
The usual deinterlacing, croping and resize back to x16...
Also converted to greyscale to get rid of color spots, lowered the
brightness a bit and encoded to settings below.
File
Format : Matroska
File size : 63.3 MiB
Duration : 3mn 48s
Overall bit rate : 2 321 Kbps
Encoded date : UTC 2009-07-17 03:06:53
Writing application : mkvmerge v2.9.7 ('Tenderness')
Writing library : libebml v0.7.7 + libmatroska v0.8.1
Video
Format profile : [email protected]
Format settings, CABAC : Yes
Format settings, ReFrames : 8 frames
Muxing mode : Container [email protected]
Codec ID : V_MPEG4/ISO/AVC
Duration : 3mn 48s
Bit rate : 1 954 Kbps
Nominal bit rate : 2 000 Kbps
Width : 720 pixels
Height : 480 pixels
Display aspect ratio : 4/3
Frame rate : 23.976 fps
Standard : NTSC
Resolution : 24 bits
Colorimetry : 4:2:0
Scan type : Progressive
Bits/(Pixel*Frame) : 0.236
Stream size : 53.3 MiB (84%)
Writing library : x264 core 68 r1181M 49bf767
Encoding settings : cabac=1 / ref=8 / deblock=1:-1:-1 /
analyse=0x3:0x133 / me=tesa / subme=9 / psy_rd=1.0:0.0 / mixed_ref=1 /
me_range=32 / chroma_me=1 / trellis=2 / 8x8dct=1 / cqm=0 / deadzone=21,11 /
chroma_qp_offset=-2 / threads=3 / nr=0 / decimate=0 / mbaff=0 / bframes=4 /
b_pyramid=1 / b_adapt=2 / b_bias=0 / direct=3 / wpredb=1 / keyint=240 /
keyint_min=24 / scenecut=40 / rc=2pass / bitrate=2000 / ratetol=1.0 /
qcomp=0.60 / qpmin=10 / qpmax=51 / qpstep=4 / cplxblur=20.0 / qblur=0.5 /
ip_ratio=1.40 / pb_ratio=1.30 / aq=1:1.00
Audio
Codec ID/Hint : MP3
Duration : 3mn 48s
Bit rate mode : Constant
Bit rate : 320 Kbps
Channel(s) : 2 channels
Sampling rate : 48.0 KHz
Resolution : 16 bits
Stream size : 8.73 MiB (14%)
Writing library : LAME3.98r
Encoding settings : -m j -V 4 -q 2 -lowpass 20.5
Language : English
Screens




Related music:
jordin sparks SOSx264 mva let the music play 2009 h33t Dave3737 download jordin sparks SOSx264 mva let the music play 2009 h33t Dave3737
Video
English
38.7 MB
4.9
/images/5/9/jordin-sparks-sosx264-mva-let-the-music-play-2009-h33t-dave3737.jpg
Mariah Carey ft Ne Yo - Angels Cry mattlb0619 2010 download Mariah Carey ft Ne Yo - Angels Cry mattlb0619 2010
Video
English
34.7 MB
4.4
/images/5/8/mariah-carey-ft-ne-yo-angels-cry-mattlb0619-2010.jpg
katy perry waking up in vegas dvdrip x264 2009 mkv h33t Dave3737 download katy perry waking up in vegas dvdrip x264 2009 mkv h33t Dave3737
Video
English
46.0 MB
4.4
/images/5/4/katy-perry-waking-up-in-vegas-dvdrip-x264-2009-mkv-h33t-dave3737.jpg
Dr Dre ft Snoop Dogg and Akon - Kush KingPinMKVideos x264 download Dr Dre ft Snoop Dogg and Akon - Kush KingPinMKVideos x264
Video
English
92.7 MB
4.0
/images/5/5/dr-dre-ft-snoop-dogg-and-akon-kush-kingpinmkvideos-x264.jpg
Rihanna ft Jeezy Hard DVDRIP x264 Dave3737 download Rihanna ft Jeezy Hard DVDRIP x264 Dave3737
Video
English
44.7 MB
4.2
/images/5/2/rihanna-ft-jeezy-hard-dvdrip-x264-dave3737.jpg
We Be Burnin' - Sean Paul 720p download We Be Burnin' - Sean Paul 720p
Video
English
61.5 MB
4.2
/images/5/6/we-be-burnin27-sean-paul-720p.jpg
Britney Spears 3 mkv h33t Dave3737 download Britney Spears 3 mkv h33t Dave3737
Video
English
47.5 MB
4.4
/images/5/2/britney-spears-3-mkv-h33t-dave3737.jpg
Rihanna ft Drake - Whats My Name KingPinMKVideos HQ x264 MKV download Rihanna ft Drake - Whats My Name KingPinMKVideos HQ x264 MKV
Video
English
101.9 MB
4.8
/images/5/9/rihanna-ft-drake-whats-my-name-kingpinmkvideos-hq-x264-mkv.jpg