Files 42316
» » Taylor Swift - We Are Never Ever Getting Back Together 720p Music Video
Language: English
Size: 61.4 MB
Votes: 038
Downloaded: 52
Category: Video
Format: MP3, FLAC
4.0

File list

  • Taylor Swift - We Are Never Ever Getting Back Together [Music Video] 720p [Sbyky].mp4 (61.4 MB)

We Are Never Ever Getting Back Together (Tribute to Taylor Swift) - American Country Hits. Открывайте новую музыку каждый день.

We Are Never Ever Getting Back Together (Tribute to Taylor Swift) - American Country Hits. Лента с персональными рекомендациями и музыкальными новинками, радио, подборки на любой вкус, удобное управление своей коллекцией. Миллионы композиций бесплатно и в хорошем качестве.

We Are Never Ever Getting Back Together Originally Performed By Taylor Swift.

The music video was the first music video to be filmed in true 4K resolution using Sony's digital motion picture cameras. The single has been certified five-times platinum by the Recording Industry Association of America. We Are Never Ever Getting Back Together" lyrics provided for educational purposes and personal use only.

Please rate this tab. Report bad tab. All artists.

Getting back together, like, ever. so He calls me up, and he's like, "i sTill love you," and i'm like, i mean this is exhausting


General
Complete name : Taylor Swift - We Are Never Ever Getting Back Together [Music Video] 720p [Sbyky].mp4
Format : MPEG-4
Format profile : Base Media / Version 2
Codec ID : mp42
File size : 61.4 MiB
Duration : 3mn 35s
Overall bit rate mode : Variable
Overall bit rate : 2 390 Kbps
Encoded date : UTC 2013-04-08 12:12:53
Tagged date : UTC 2013-04-08 12:12:53
Video
ID : 1
Format : AVC
Format/Info : Advanced Video Codec
Format profile : [email protected]
Format settings, CABAC : Yes
Format settings, ReFrames : 1 frame
Format settings, GOP : M=1, N=60
Codec ID : avc1
Codec ID/Info : Advanced Video Coding
Duration : 3mn 35s
Bit rate : 2 195 Kbps
Maximum bit rate : 5 625 Kbps
Width : 1 280 pixels
Height : 720 pixels
Display aspect ratio : 16:9
Frame rate mode : Constant
Frame rate : 23.976 fps
Color space : YUV
Chroma subsampling : 4:2:0
Bit depth : 8 bits
Scan type : Progressive
Bits/(Pixel*Frame) : 0.099
Stream size : 56.4 MiB (92%)
Tagged date : UTC 2013-04-08 12:13:22
Audio
ID : 2
Format : AAC
Format/Info : Advanced Audio Codec
Format profile : LC
Codec ID : 40
Duration : 3mn 35s
Bit rate mode : Variable
Bit rate : 192 Kbps
Maximum bit rate : 202 Kbps
Channel(s) : 2 channels
Channel positions : Front: L R
Sampling rate : 44.1 KHz
Compression mode : Lossy
Stream size : 4.93 MiB (8%)
Title : IsoMedia File Produced by Google, 5-11-2011
Encoded date : UTC 2013-04-08 12:13:12
Tagged date : UTC 2013-04-08 12:13:22
Shared By Sbyky

Related music:
Emily Kinney - Kids 720p Music Video download Emily Kinney - Kids 720p Music Video
Video
English
60.5 MB
4.2
/images/5/3/emily-kinney-kids-720p-music-video-.jpg
John Legend - All Of Me 720p Music Video download John Legend - All Of Me 720p Music Video
Video
English
62.7 MB
4.1
/images/5/4/john-legend-all-of-me-720p-music-video-.jpg
Tim McGraw Ft Taylor Swift & Keith Urban - Highway Don't Care 720p Music Video download Tim McGraw Ft Taylor Swift & Keith Urban - Highway Don't Care 720p Music Video
Video
English
85.8 MB
4.2
/images/5/1/tim-mcgraw-ft-taylor-swift-26-keith-urban-highway-don27t-care-720p-music-video-.jpg
Taylor Swift Ft Ed Sheeran - Everything Has Changed 1080p Music Video download Taylor Swift Ft Ed Sheeran - Everything Has Changed 1080p Music Video
Video
English
94.1 MB
4.1
/images/5/7/taylor-swift-ft-ed-sheeran-everything-has-changed-1080p-music-video-.jpg
Ke$ha - Dirty Love 720p Music Video download Ke$ha - Dirty Love 720p Music Video
Video
English
77.0 MB
4.1
/images/5/7/ke24ha-dirty-love-720p-music-video-.jpg
Fat Joe Ft Wiz Khalifa & Teyana Taylor - Ballin' 720p Music Video download Fat Joe Ft Wiz Khalifa & Teyana Taylor - Ballin' 720p Music Video
Video
English
49.4 MB
4.6
/images/5/2/fat-joe-ft-wiz-khalifa-26-teyana-taylor-ballin27-720p-music-video-.jpg
Taylor Swift - 22 720p Music Video download Taylor Swift - 22 720p Music Video
Video
English
62.5 MB
4.7
/images/5/2/taylor-swift-22-720p-music-video-.jpg
Little Mix - Little Me 720p Music Video download Little Mix - Little Me 720p Music Video
Video
English
37.9 MB
4.1
/images/5/5/little-mix-little-me-720p-music-video-.jpg