Files 42316
» » Ariana Grande Ft Iggy Azalea & Big Sean - Problem 1080p Music Video
Language: English
Size: 58.3 MB
Votes: 590
Downloaded: 67
Category: Video
Format: MP3, FLAC
4.9

File list

  • Ariana Grande Ft. Iggy Azalea & Big Sean - Problem [Music Video] 1080p [Sbyky].MP4 (58.3 MB)

Big Sean & Iggy Azalea – Problem. Ariana Grande, Iggy Azalea, Viking ft. A-One vs DNK – Problem (DJ LUCKY Mash Up) v. om/musi. :13. Ariana Grande – Problem feat Iggy Azalea) (Caked Up remix.

Big Sean & Iggy Azalea – Problem. Chart Anthems – Problem (Intro) Originally Performed B. :14. Ariana Grande – Problem feat Iggy Azalea) ( PI. 3:39. Ariana grande – problem. Ariana Grande ANV PRESENTS – Problem feat Iggy Azalea showtime. Неизвестен – JuDance cover Ariana Grande - Problem fea. Ariana Grande feat Iggy Azalea – Problem(BassBoosted by Vetr x). 2:39. Ariana Grande Ft. Iggy Azalea – Problem.

Ariana Grande's "Problem" video featuring Iggy Azalea. In this week's episode, we discuss the biggest contenders for 2014's Song of the Summer, including "Fancy," "Problem," "Sing," "Am I Wrong" and more. The 1960's tribute supports Grande's latest smash hit, which precedes her upcoming sophomore album.

One less problem without ya I got one less problem without ya I got one less problem without ya I got one less, one less problem One less problem without ya I got one less problem without ya I got one less problem without ya I got one less, one less problem. The music video won Best Pop Video at the 2014 MTV Video Music Awards, and the song itself won Best Song at the 2014 MTV Europe Music Awards. The song is featured in the video game Just Dance 2015. What have the artists said about the song?

Forums Video Mania Music Videos ON DEMAND & WEB RIP VEVO . . Ariana Grande - break up with your girlfriend, i'm bored - 1080P. Please upload the video on google drive or MEGA

Forums Video Mania Music Videos ON DEMAND & WEB RIP VEVO . WEB-RiP Ariana Grande Feat. Iggy Azalea - Problem (VEVO-1080p-ljyjzj). Discussion in 'VEVO' started by ljyjzj, May 1, 2014. Please upload the video on google drive or MEGA. nz because I can not download it from baidu and my JDownloader2 can not download this too. Unknown Ariana Grande Fan, Jan 4, 2019.

Клип американской певицы Ariana Grande (совместно с Iggy Azalea) на песню Problem из альбома Yours Truly (2013). Nicki Minaj - The Light Is Coming. Ariana Grande - No Tears Left To Cry. Iggy Azalea feat.

For 720p: http://.to/torrent/1005254/Billboard-Hot-100-11-October-2014-720p-Sbyky/
General
Complete name : Ariana Grande Ft. Iggy Azalea & Big Sean - Problem [Music Video] 1080p [Sbyky].MP4
Format : MPEG-4
Format profile : Base Media
Codec ID : isom
File size : 58.3 MiB
Duration : 3mn 27s
Overall bit rate mode : Variable
Overall bit rate : 2 361 Kbps
Encoded date : UTC 2014-05-31 13:24:18
Tagged date : UTC 2014-05-31 13:24:18
Video
ID : 1
Format : AVC
Format/Info : Advanced Video Codec
Format profile : [email protected]
Format settings, CABAC : Yes
Format settings, ReFrames : 3 frames
Codec ID : avc1
Codec ID/Info : Advanced Video Coding
Duration : 3mn 27s
Bit rate : 2 231 Kbps
Width : 1 920 pixels
Height : 1 080 pixels
Display aspect ratio : 16:9
Frame rate mode : Variable
Frame rate : 23.976 fps
Minimum frame rate : 23.974 fps
Maximum frame rate : 891.089 fps
Color space : YUV
Chroma subsampling : 4:2:0
Bit depth : 8 bits
Scan type : Progressive
Bits/(Pixel*Frame) : 0.045
Stream size : 55.1 MiB (94%)
Encoded date : UTC 2014-05-31 13:24:18
Tagged date : UTC 2014-05-31 13:24:18
Audio
ID : 2
Format : AAC
Format/Info : Advanced Audio Codec
Format profile : LC
Codec ID : 40
Duration : 3mn 27s
Bit rate mode : Variable
Bit rate : 126 Kbps
Channel(s) : 2 channels
Channel positions : Front: L R
Sampling rate : 44.1 KHz
Compression mode : Lossy
Stream size : 3.10 MiB (5%)
Encoded date : UTC 2014-05-31 13:23:26
Tagged date : UTC 2014-05-31 13:23:26
Shared By Sbyky

Related music:
Sevyn Streeter Ft Kid Ink - nEXt 1080p Music Video download Sevyn Streeter Ft Kid Ink - nEXt 1080p Music Video
Video
English
93.7 MB
4.4
/images/5/4/sevyn-streeter-ft-kid-ink-next-1080p-music-video-.jpg
Iggy Azalea Ft Rita Ora - Black Widow 720p Music Video download Iggy Azalea Ft Rita Ora - Black Widow 720p Music Video
Video
English
49.2 MB
4.5
/images/5/1/iggy-azalea-ft-rita-ora-black-widow-720p-music-video-.jpg
Ariana Grande Ft Big Sean - Right There 720p Music Video download Ariana Grande Ft Big Sean - Right There 720p Music Video
Video
English
63.4 MB
4.1
/images/5/6/ariana-grande-ft-big-sean-right-there-720p-music-video-.jpg
Charli XCX - Boom Clap 1080p Music Video download Charli XCX - Boom Clap 1080p Music Video
Video
English
57.6 MB
4.9
/images/5/3/charli-xcx-boom-clap-1080p-music-video-.jpg
Iggy Azalea Ft Charli XCX - Fancy 720p download Iggy Azalea Ft Charli XCX - Fancy 720p
Video
English
54.3 MB
4.5
/images/5/9/iggy-azalea-ft-charli-xcx-fancy-720p-.jpg
T I Ft Iggy Azalea - No Mediocre 1080p download T I Ft Iggy Azalea - No Mediocre 1080p
Video
English
80.3 MB
4.4
/images/5/2/t-i-ft-iggy-azalea-no-mediocre-1080p-.jpg
Shakira - Empire 1080p Music Video download Shakira - Empire 1080p Music Video
Video
English
94.2 MB
4.1
/images/5/0/shakira-empire-1080p-music-video-.jpg
Tyga Ft Young Thug - Hookah 1080p Music Video download Tyga Ft Young Thug - Hookah 1080p Music Video
Video
English
104.1 MB
4.4
/images/5/5/tyga-ft-young-thug-hookah-1080p-music-video-.jpg