Files 42316
» » Coldplay - Magic 1080p Music Video
Language: English
Size: 153.0 MB
Votes: 943
Downloaded: 14
Category: Video
Format: MP3, FLAC
4.9

File list

  • Coldplay - Magic [Music Video] 1080p [Sbyky].MP4 (153.0 MB)

50+ видео Воспроизвести все Микс – Coldplay - Magic (Official Video)YouTube.

50+ видео Воспроизвести все Микс – Coldplay - Magic (Official Video)YouTube. 50+ видео Воспроизвести все Саундрек милениаловYouTube Music.

50+ видео Воспроизвести все Микс – Coldplay in Montréal - Us against the worldYouTube. Metallica - Nothing Else Matters (Official Music Video) - Продолжительность: 6:26 Fast Workers Recommended for you. 6:26.

Coldplay have revealed the video for their new single Magic. Magic is taken from Coldplay’s new album Ghost Stories, which will be released on May 19 on Parlophone Records. Full Ghost Stories tracklist: 1. Always In My Head 2. Magic 3. Ink 4. True Love 5. Midnight 6. Another's.

Music video · 2014 · 5:14 min Free with Apple Music subscription. See All. Lost? (+Jay-Z), Viva La Vida.

Sam Smith - Writing's On The Wall (from Spectre) (Official Video).


General
Complete name : Coldplay - Magic [Music Video] 1080p [Sbyky].MP4
Format : MPEG-4
Format profile : Base Media
Codec ID : isom
File size : 153 MiB
Duration : 5mn 15s
Overall bit rate mode : Variable
Overall bit rate : 4 067 Kbps
Encoded date : UTC 2014-04-06 09:01:52
Tagged date : UTC 2014-04-06 09:01:52
Video
ID : 1
Format : AVC
Format/Info : Advanced Video Codec
Format profile : [email protected]
Format settings, CABAC : Yes
Format settings, ReFrames : 2 frames
Codec ID : avc1
Codec ID/Info : Advanced Video Coding
Duration : 5mn 15s
Bit rate : 3 939 Kbps
Width : 1 920 pixels
Height : 1 080 pixels
Display aspect ratio : 16:9
Frame rate mode : Constant
Frame rate : 25.000 fps
Color space : YUV
Chroma subsampling : 4:2:0
Bit depth : 8 bits
Scan type : Progressive
Bits/(Pixel*Frame) : 0.076
Stream size : 148 MiB (97%)
Encoded date : UTC 2014-04-06 09:01:52
Tagged date : UTC 2014-04-06 09:01:52
Audio
ID : 2
Format : AAC
Format/Info : Advanced Audio Codec
Format profile : LC
Codec ID : 40
Duration : 5mn 15s
Bit rate mode : Variable
Bit rate : 126 Kbps
Channel(s) : 2 channels
Channel positions : Front: L R
Sampling rate : 44.1 KHz
Compression mode : Lossy
Stream size : 4.72 MiB (3%)
Encoded date : UTC 2014-04-06 09:01:07
Tagged date : UTC 2014-04-06 09:01:07
Shared By Sbyky

Related music:
Neon Jungle - Welcome To The Jungle 1080p Music Video download Neon Jungle - Welcome To The Jungle 1080p Music Video
Video
English
97.4 MB
4.5
/images/5/2/neon-jungle-welcome-to-the-jungle-1080p-music-video-.jpg
Sevyn Streeter Ft Kid Ink - nEXt 1080p Music Video download Sevyn Streeter Ft Kid Ink - nEXt 1080p Music Video
Video
English
93.7 MB
4.4
/images/5/4/sevyn-streeter-ft-kid-ink-next-1080p-music-video-.jpg
One Direction - You & I 1080p Music Video download One Direction - You & I 1080p Music Video
Video
English
111.1 MB
4.5
/images/5/5/one-direction-you-26-i-1080p-music-video-.jpg
Coldplay - Magic 720p Music Video download Coldplay - Magic 720p Music Video
Video
English
78.4 MB
4.2
/images/5/4/coldplay-magic-720p-music-video-.jpg
Katy Perry - Birthday 1080p Music Video download Katy Perry - Birthday 1080p Music Video
Video
English
214.8 MB
4.2
/images/5/2/katy-perry-birthday-1080p-music-video-.jpg
Karmin - I Want It All 1080p Music Video download Karmin - I Want It All 1080p Music Video
Video
English
85.2 MB
4.6
/images/5/4/karmin-i-want-it-all-1080p-music-video-.jpg
Shakira - Empire 1080p Music Video download Shakira - Empire 1080p Music Video
Video
English
94.2 MB
4.1
/images/5/0/shakira-empire-1080p-music-video-.jpg
Alizée - Blonde 1080p Music Video download Alizée - Blonde 1080p Music Video
Video
French
86.3 MB
4.3
/images/5/6/alizc3a9e-blonde-1080p-music-video-.jpg
50 Cent Ft Joe - Big Rich Town 1080p Music Video download 50 Cent Ft Joe - Big Rich Town 1080p Music Video
Video
English
72.7 MB
4.3
/images/5/7/50-cent-ft-joe-big-rich-town-1080p-music-video-.jpg