Files 42316
» » Taylor Swift - Style mp4
Language: English
Size: 85.9 MB
Votes: 103
Downloaded: 44
Category: Video
Format: MP3, FLAC
4.2

File list

  • Taylor Swift - Style [P-DawG].mp4 (85.9 MB)

Лучшие композиции – Тейлор Свифт. Taylor Swift - Style. Taylor Swift - Sweeter Than Fiction (Lyrics) + Free mp3 download!

Лучшие композиции – Тейлор Свифт. Taylor Swift - Sweeter Than Fiction (Lyrics) + Free mp3 download! Arben Dzaferis.

Рингтон) Taylor Swift скачать mp3 в хорошем качестве, либо слушайте песню Taylor Swift - Blank Space ringtone, Taylor Swift - End Game (RINGTONE BY Aidar S. 1), Taylor Swift - Bad blood, ZAYN & Taylor Swift - I Don t Wanna Live Forever, а также рингтоны на звонок и вс. . 1), Taylor Swift - Bad blood, ZAYN & Taylor Swift - I Don t Wanna Live Forever, а также рингтоны на звонок и все новые треки.

Taylor won Best International Artist’ at the ARIAs awards in Australia tonight and accepted the award via video message. Carole King presents Taylor as Artist of the Decade. Taylor's reaction to Shawn and Camila's performance.

Новое видео американской певицы Taylor Swift на композицию Style из пятого студийного альбома 1989 (2014). Новое видео американской певицы Taylor Swift на композицию Style из пятого студийного альбома 1989 (2014).

Taylor Swift - Style/LoveStory/You Belong With Me (Live From Cleveland). Markyyy Arriesgado 142K. Taylor Swift 1989 World Tour- Style. Taylor Swift - Style - AMAZING Animated Lyrics Video! Viratx Doodle . M.

to"Taylor Swift - Style. Please, upgrade your browser, OS or both. None Raised Depressed Uniform Dropshadow. Prosím, aktualizujte svůj prohlížeč, operační systém nebo obojí. Video Player is loading. Proportional Sans-Serif Monospace Sans-Serif Proportional Serif Monospace Serif Casual Script Small Caps. Reset restore all settings to the default values.

Taylor shows us what she's really thinking about - sunny days and shirtless men. Tap to play or pause GIF. Big Machine Records.

[P-DawG]

Cover:-

Screens:-
Click to view screenshots
General Info:-
General
Complete name : Taylor Swift - Style [P-DawG].mp4
Format : MPEG-4
Format profile : Base Media
Codec ID : isom
File size : 85.9 MiB
Duration : 4mn 3s
Overall bit rate : 2 966 Kbps
Writing application : Lavf54.29.104

Video

ID : 1
Format : AVC
Format/Info : Advanced Video Codec
Format profile : [email protected]
Format settings, CABAC : Yes
Format settings, ReFrames : 2 frames
Codec ID : avc1
Codec ID/Info : Advanced Video Coding
Duration : 4mn 2s
Bit rate mode : Variable
Bit rate : 2 835 Kbps
Width : 1 920 pixels
Height : 1 080 pixels
Display aspect ratio : 16:9
Frame rate mode : Constant
Frame rate : 23.976 fps
Color space : YUV
Chroma subsampling : 4:2:0
Bit depth : 8 bits
Scan type : Progressive
Bits/(Pixel*Frame) : 0.057
Stream size : 82.1 MiB (96%)
Audio
ID : 2
Format : AAC
Format/Info : Advanced Audio Codec
Format profile : LC
Codec ID : 40
Duration : 4mn 3s
Bit rate mode : Constant
Bit rate : 126 Kbps
Channel(s) : 2 channels
Channel positions : Front: L R
Sampling rate : 44.1 KHz
Compression mode : Lossy
Stream size : 3.64 MiB (4%)

Related music:
The Weeknd - The Hills 1080p mp4 download The Weeknd - The Hills 1080p mp4
Video
English
84.1 MB
4.7
/images/5/0/the-weeknd-the-hills-1080p-mp4.jpg
Avril Lavigne - Fly 1080p mp4 for Special Olympics download Avril Lavigne - Fly 1080p mp4 for Special Olympics
Video
English
86.9 MB
4.4
/images/5/8/avril-lavigne-fly-1080p-mp4-for-special-olympics.jpg
Ciara - I Bet 1080p mp4 download Ciara - I Bet 1080p mp4
Video
English
104.1 MB
4.3
/images/5/6/ciara-i-bet-1080p-mp4.jpg
ZAYN - LIKE I WOULD 1080p mp4 download ZAYN - LIKE I WOULD 1080p mp4
Video
English
102.9 MB
4.5
/images/5/4/zayn-like-i-would-1080p-mp4.jpg
Kalin And Myles - Trampoline 1080p download Kalin And Myles - Trampoline 1080p
Video
English
105.3 MB
4.1
/images/5/8/kalin-and-myles-trampoline-1080p-.jpg
Chris Brown, Tyga - Ayo 1080p download Chris Brown, Tyga - Ayo 1080p
Video
English
176.0 MB
4.6
/images/noimage.jpg
Taylor Swift - Out Of The Woods 1080p mp4 download Taylor Swift - Out Of The Woods 1080p mp4
Video
English
86.8 MB
4.3
/images/5/6/taylor-swift-out-of-the-woods-1080p-mp4.jpg
Taylor Swift - Bad Blood ft Kendrick Lamar 1080p mp4 download Taylor Swift - Bad Blood ft Kendrick Lamar 1080p mp4
Video
English
86.8 MB
4.7
/images/5/0/taylor-swift-bad-blood-ft-kendrick-lamar-1080p-mp4.jpg