Files 42316
» » My Dil Goes Mmmm - Salaam Namaste UJ.rip 2005
Language: Hindi
Size: 223.6 MB
Votes: 999
Downloaded: 48
Category: Video
Format: MP3, FLAC
4.1

File list

  • My Dil Goes Mmmm - Salaam Namaste (2005) [UJ.rip].avi (223.6 MB)

ladte ladte galti se muskaaye. karti hoon jab usse baatein. lagta hai sone waala hai.

aati hai woh aise chal ke. jaise jannat mein raheti hai. dekhti hai sabko aaise. jaise sabko woh saheti hai. par gusse main jab aaye. aur aankhein woh dikhlaye. ladte ladte galti se muskaaye. soke jab jab bhi woh jaage. lagta hai rone waala hai. par chupke se woh aaye. meri neend se mujhe jayage. le baahon mein aur khudh hi gir jaaye.

Artist: Gayatri Iyer. Album: Salaam Namaste (Original Motion Picture Soundtrack), 2005. SALAAM NAMASTE gives us a quirky take on life, love and relationship as it looks at a fairy tale with a bit of a squint. gl/xs3mrY Stay updated! Some feelings can never be expressed.

05 - My Dil Goes Mmmm english club mi. p3 download. 06 - Salaam Namaste dhol mi. 07 - My Dil Goes Mmmm instrumental. download 40 Files download 12 Original.

Salaam Namaste (English: Hello Greetings) is a 2005 Indian romantic comedy film. It is directed by first-time director Siddharth Anand and produced by Aditya Chopra and Yash Chopra under the Yash Raj Films banner. Arshad Warsi, Tania Zaetta and Jugal Hansraj appear in supporting roles. Released on 9 September 2005, it was the first Indian movie to be filmed entirely in Australia.

My Dil Goes Mmmm Director : Salaam Namaste Genre : Bollywood Recorded date : 07/28/2012 Writing application : Lavf52.





My Dil Goes Mmmm - Salaam Namaste [UJ.rip]

Format : AVI
Format/Info : Audio Video Interleave
File size : 224 MiB
Duration : 6mn 3s
Overall bit rate : 5 161 Kbps
Movie name : My Dil Goes Mmmm [UJ.rip]
Director : Salaam Namaste
Genre : Bollywood
Recorded date : 07/28/2012
Writing application : Lavf52.39.1
Copyright : @Utpal
Ripped by : UJ.rip on 7/28/2012
Posted by : UJ.rip on 7/28/2012

ID : 0
Format : xvid
Codec ID : xvid
Duration : 6mn 3s
Bit rate : 5 019 Kbps
Width : 1 920 pixels
Height : 1 080 pixels
Display aspect ratio : 16:9
Frame rate : 30.000 fps
Bits/(Pixel*Frame) : 0.081
Stream size : 217 MiB (97%)

ID : 1
Format : MPEG Audio
Format version : Version 1
Format profile : Layer 3
Mode : Joint stereo
Mode extension : MS Stereo
Codec ID : 55
Codec ID/Hint : MP3
Duration : 6mn 3s
Bit rate mode : Constant
Bit rate : 128 Kbps
Channel(s) : 2 channels
Sampling rate : 48.0 KHz
Compression mode : Lossy
Stream size : 5.55 MiB (2%)
Alignment : Aligned on interleaves
Interleave, duration : 24 ms (0.72 video frame)
Language : hin






Related music:
Flo Rida ft Nelly Furtado - Jump Official Music Video download Flo Rida ft Nelly Furtado - Jump Official Music Video
Video
English
83.1 MB
4.3
/images/5/8/flo-rida-ft-nelly-furtado-jump-official-music-video-.jpg
Anna Lesko feat Gilberto - Go Crazy HDRip 2012-MFA download Anna Lesko feat Gilberto - Go Crazy HDRip 2012-MFA
Video
English
51.6 MB
4.8
/images/5/3/anna-lesko-feat-gilberto-go-crazy-hdrip-2012-mfa.jpg
Akcent feat Sandra N - I'm Sorry HDRip 2012-MFA download Akcent feat Sandra N - I'm Sorry HDRip 2012-MFA
Video
English
38.7 MB
4.2
/images/5/4/akcent-feat-sandra-n-i27m-sorry-hdrip-2012-mfa.jpg
Connect-R - Vara nu dorm 2012-MFA download Connect-R - Vara nu dorm 2012-MFA
Video
English
141.6 MB
4.5
/images/5/1/connect-r-vara-nu-dorm-2012-mfa.jpg
Lady Gaga - Judas - Xclusive - D$R 2011 720p-HD download Lady Gaga - Judas - Xclusive - D$R 2011 720p-HD
Video
English
115.4 MB
4.7
/images/5/5/lady-gaga-judas-xclusive-d24r-2011-720p-hd.jpg
Abhi Abhi Toh Mile Ho FULL SONG - Sunny Leone, Randeep Hooda, Arunnoday Singh Jism 2 UJ.rip download Abhi Abhi Toh Mile Ho FULL SONG - Sunny Leone, Randeep Hooda, Arunnoday Singh Jism 2 UJ.rip
Video
Hindi
349.9 MB
4.4
/images/5/9/abhi-abhi-toh-mile-ho-full-song-sunny-leone2c-randeep-hooda2c-arunnoday-singh-jism-2-ujrip.jpg
Maula Sunny Leone, Arunnoday Singh, Randeep Hooda Jism 2 UJ.rip Karaoke Song 2012 download Maula Sunny Leone, Arunnoday Singh, Randeep Hooda Jism 2 UJ.rip Karaoke Song 2012
Video
Hindi
139.1 MB
4.7
/images/5/9/maula-sunny-leone2c-arunnoday-singh2c-randeep-hooda-jism-2-ujrip-karaoke-song-2012.jpg
Kamelia - Prima oara 2012-MFA Official Video download Kamelia - Prima oara 2012-MFA Official Video
Video
English
57.7 MB
4.5
/images/5/1/kamelia-prima-oara-2012-mfa-official-video.jpg