Files 42316
» » INNA Ft Juan Magan - Un Momento 720p Music Video
Language: English
Size: 73.1 MB
Votes: 864
Downloaded: 26
Category: Video
Format: MP3, FLAC
4.0

File list

  • INNA Ft. Juan Magan - Un Momento [Music Video] 720p [Sbyky].MP4 (73.1 MB)

UMPI, LatinAutor, LatinAutor - SonyATV, BMI - Broadcast Music In. Abramus Digital, SOLAR Music Rights Management, Sony ATV Publishing, UNIAO BRASILEIRA DE. .Juan Magan - Falling In Love (Lyric Video) ft.

Juan Magan - Falling In Love (Lyric Video) ft.

Juan Magan - Un Momento. Download MP3 or another format to your phone or computer. Download for free and listen to Inna feat. Juan Magan - Un Momento. We have song's lyrics, which you can find out below

Juan Magan - Un Momento. We have song's lyrics, which you can find out below.

Juan Magan) (Play&Win Radio Version). Download MP3. MP3 320Kbps, . Mb MP3 128Kbps, . 1 Mb MP3 64Kbps, . 6 Mb. Inna.

Здесь вы можете прослушать песню Inna - Un Momento (F. Juan Magan) - слушать онлайн. Inna - Club Rocker (Play & Win Remix).

Здесь вы можете прослушать песню Inna - Un Momento (Ft. Juan Magan) онлайн в плеере бесплатно. Слушай музыку только в хорошем качестве.


General
Complete name : INNA Ft. Juan Magan - Un Momento [Music Video] 720p [Sbyky].MP4
Format : MPEG-4
Format profile : Base Media / Version 2
Codec ID : mp42
File size : 73.1 MiB
Duration : 3mn 49s
Overall bit rate mode : Variable
Overall bit rate : 2 677 Kbps
Encoded date : UTC 2013-04-15 06:56:07
Tagged date : UTC 2013-04-15 06:56:07
Video
ID : 1
Format : AVC
Format/Info : Advanced Video Codec
Format profile : [email protected]
Format settings, CABAC : Yes
Format settings, ReFrames : 1 frame
Codec ID : avc1
Codec ID/Info : Advanced Video Coding
Duration : 3mn 49s
Bit rate : 2 482 Kbps
Maximum bit rate : 6 185 Kbps
Width : 1 280 pixels
Height : 720 pixels
Display aspect ratio : 16:9
Frame rate mode : Constant
Frame rate : 25.000 fps
Color space : YUV
Chroma subsampling : 4:2:0
Bit depth : 8 bits
Scan type : Progressive
Bits/(Pixel*Frame) : 0.108
Stream size : 67.8 MiB (93%)
Tagged date : UTC 2013-04-15 06:56:11
Audio
ID : 2
Format : AAC
Format/Info : Advanced Audio Codec
Format profile : LC
Codec ID : 40
Duration : 3mn 49s
Bit rate mode : Variable
Bit rate : 192 Kbps
Maximum bit rate : 202 Kbps
Channel(s) : 2 channels
Channel positions : Front: L R
Sampling rate : 44.1 KHz
Compression mode : Lossy
Stream size : 5.24 MiB (7%)
Title : IsoMedia File Produced by Google, 5-11-2011
Encoded date : UTC 2013-04-15 06:56:10
Tagged date : UTC 2013-04-15 06:56:11
Shared By Sbyky

Related music:
Cher Lloyd Ft T I - I Wish 720p Music Video download Cher Lloyd Ft T I - I Wish 720p Music Video
Video
English
60.6 MB
4.3
/images/5/1/cher-lloyd-ft-t-i-i-wish-720p-music-video-.jpg
INNA - Wow 1080p Music Video download INNA - Wow 1080p Music Video
Video
English
152.3 MB
4.0
/images/noimage.jpg
John Legend - All Of Me 720p Music Video download John Legend - All Of Me 720p Music Video
Video
English
62.7 MB
4.1
/images/5/4/john-legend-all-of-me-720p-music-video-.jpg
Stromae - Papaoutai 720p Music Video download Stromae - Papaoutai 720p Music Video
Video
French
41.8 MB
4.6
/images/5/0/stromae-papaoutai-720p-music-video-.jpg
Ke$ha - Dirty Love 720p Music Video download Ke$ha - Dirty Love 720p Music Video
Video
English
77.0 MB
4.1
/images/5/7/ke24ha-dirty-love-720p-music-video-.jpg
J Cole - Work Out 720p Music Video download J Cole - Work Out 720p Music Video
Video
English
79.9 MB
4.2
/images/5/9/j-cole-work-out-720p-music-video-.jpg
Little Mix - Little Me 720p Music Video download Little Mix - Little Me 720p Music Video
Video
English
37.9 MB
4.1
/images/5/5/little-mix-little-me-720p-music-video-.jpg