Files 42316
» » Alexandra Stan - Get Back 720p ASAP
Language: English
Size: 64.5 MB
Votes: 031
Downloaded: 44
Category: Video
Format: MP3, FLAC
4.0

File list

  • Alexandra Stan - Get Back [ASAP] 720p [Sbyky].MP4 (64.5 MB)

Исполнитель: Alexandra Stan. Tic-tac-toe go play me nonstop Tonight I will make you mine

Исполнитель: Alexandra Stan. Tic-tac-toe go play me nonstop Tonight I will make you mine. Boy you make me high, III want you to try-yy, Get back ASAP Boy you make me high, III want you to try-yy, Get back ASAP Boy you make me high, III want you to try-yy, Get back ASAP Boy you make me high, III want you to try-yy, Get back ASAP Yeah, yeah, yeah, oh yeah You will. want, Wa-wa-wa want speaking, Is no time, And my se-se-se-sexy bikinis will drop. Tic-tac-toe go play me nonstop, Tonight I will make you mine.

Перевод текста песни Get Back (. P) исполнителя (группы) Alexandra Stan. Alan Walker & ASAP Rocky. Главная Переводы песен A Alexandra Stan Get Back (. 6 7 8 9. Get Back (. P) (оригинал Alexandra Stan). Вернись (Как можно скорее) (перевод Мерген из Атырау). Yeah, yeah, yeah oh yeah.

General Complete name : Alexandra Stan VideografiaAlexandra Stan - Get Back (ASAP). 7 ('Tenderness') built. Video ID : 1 Format : AVC Format/Info : Advanced Video Codec Format profile : [email protected]

You will want Wa-wa-wa want speaking Is no time And my se-se-se sexy bikinis will drop. Tik-tak-toe go play me nonstop Tonight I will make you mine. Boy you make me high, I I I want you to try-y-y Get back .

You will want Wa-wa-wa want speaking Is no time And my se-se-se sexy bikinis will drop. P Boy you make me high, I I I want you to try-y-y Get back . Yeah, yeah, yeah oh yeah Baby dance with me And feel the waves Feel the waves. You will want Wa-wa-wa want speaking Is no time And my se-se-se sexy bikinis will drop.


General
Complete name : Alexandra Stan - Get Back [ASAP] 720p [Sbyky].MP4
Format : MPEG-4
Format profile : Base Media / Version 2
Codec ID : mp42
File size : 64.5 MiB
Duration : 3mn 36s
Overall bit rate mode : Variable
Overall bit rate : 2 496 Kbps
Encoded date : UTC 2011-06-05 20:41:36
Tagged date : UTC 2011-06-05 20:41:36
Video
ID : 1
Format : AVC
Format/Info : Advanced Video Codec
Format profile : [email protected]
Format settings, CABAC : Yes
Format settings, ReFrames : 1 frame
Format settings, GOP : M=1, N=30
Codec ID : avc1
Codec ID/Info : Advanced Video Coding
Duration : 3mn 36s
Bit rate : 2 340 Kbps
Maximum bit rate : 5 064 Kbps
Width : 1 280 pixels
Height : 720 pixels
Display aspect ratio : 16:9
Frame rate mode : Constant
Frame rate : 25.000 fps
Color space : YUV
Chroma subsampling : 4:2:0
Bit depth : 8 bits
Scan type : Progressive
Bits/(Pixel*Frame) : 0.102
Stream size : 60.4 MiB (94%)
Tagged date : UTC 2011-06-05 20:41:38
Audio
ID : 2
Format : AAC
Format/Info : Advanced Audio Codec
Format profile : LC
Codec ID : 40
Duration : 3mn 36s
Bit rate mode : Variable
Bit rate : 152 Kbps
Maximum bit rate : 175 Kbps
Channel(s) : 2 channels
Channel positions : Front: L R
Sampling rate : 44.1 KHz
Compression mode : Lossy
Stream size : 3.92 MiB (6%)
Title : IsoMedia File Produced by Google, 5-11-2011
Encoded date : UTC 2011-06-05 20:41:37
Tagged date : UTC 2011-06-05 20:41:38
Shared By Sbyky

Related music:
Alexandra Stan - Thanks For Leaving 1080p Music Video download Alexandra Stan - Thanks For Leaving 1080p Music Video
Video
English
76.6 MB
4.5
/images/5/1/alexandra-stan-thanks-for-leaving-1080p-music-video-.jpg
Alexandra Stan - Thanks For Leaving 720p Music Video download Alexandra Stan - Thanks For Leaving 720p Music Video
Video
English
35.9 MB
4.6
/images/5/1/alexandra-stan-thanks-for-leaving-720p-music-video-.jpg
John Legend - All Of Me 720p Music Video download John Legend - All Of Me 720p Music Video
Video
English
62.7 MB
4.1
/images/5/4/john-legend-all-of-me-720p-music-video-.jpg
Taylor Swift - We Are Never Ever Getting Back Together 720p Music Video download Taylor Swift - We Are Never Ever Getting Back Together 720p Music Video
Video
English
61.4 MB
4.0
/images/5/0/taylor-swift-we-are-never-ever-getting-back-together-720p-music-video-.jpg
P!nk - Try 720p Music Video download P!nk - Try 720p Music Video
Video
English
54.4 MB
4.9
/images/5/7/p21nk-try-720p-music-video-.jpg
Ik Tu Hi Tu Hi - Mausam 720P HD Video Song 2011 download Ik Tu Hi Tu Hi - Mausam 720P HD Video Song 2011
Video
Hindi
86.3 MB
4.4
/images/5/7/ik-tu-hi-tu-hi-mausam-720p-hd-video-song-2011.jpg
Katy Perry - Last Friday Night 720p T.G.I.F. download Katy Perry - Last Friday Night 720p T.G.I.F.
Video
English
130.6 MB
4.2
/images/5/7/katy-perry-last-friday-night-720p-tgif-.jpg
One Direction - What Makes You Beautiful 720p Music Video download One Direction - What Makes You Beautiful 720p Music Video
Video
English
75.0 MB
4.3
/images/5/2/one-direction-what-makes-you-beautiful-720p-music-video-.jpg
Redlight King - Old Man 720p Music Video download Redlight King - Old Man 720p Music Video
Video
English
38.7 MB
4.4
/images/5/2/redlight-king-old-man-720p-music-video-.jpg