Files 42316
» » Supertramp - Paris '79 MP4, AAC, 5.1
Language: English
Size: 4.6 GB
Votes: 386
Downloaded: 22
Category: Video
Format: MP3, FLAC
4.0

File list

  • Media Info.txt (2.9 KB)
  • nfo.nfo (0.9 KB)
  • Supertramp - Paris Live [1979].jpg (14.7 KB)
  • Supertramp - Paris Live [1979].mp4 (4.5 GB)
  • Supertramp - Paris Live [1979]Sample.mp4 (91.2 MB)

Supertramp Live Concert Paris 1979.

Supertramp Live Concert Paris 1979.

Artist: Supertramp Album: Live In Paris '79 Year: 2012 Genre: Progressive rock, pop rock, art rock Format: MKV .

Artist: Supertramp Album: Live In Paris '79 Year: 2012 Genre: Progressive rock, pop rock, art rock Format: MKV Video: MPEG4 Video (H264) 1920x1080 24fps Audio . Download file from usenet: Supertramp – Live In Paris ’79 (2012) BDRip. Roger hodgson supertramp complete CD DVD bd collection 25 discs 16. $.

Quality mp3 128 kbps 44 KHz Joint Stereo Recorded 1988 Genre Progressive Rock Label A&M Producer Rick Davies, Tom Lord-Alge, Supertramp.

Paris is a live album by the English rock band Supertramp, released in 1980. It was recorded on Supertramp's Breakfast in America tour in Paris, France, with most of the tracks taken from a 29 November 1979 show at the Pavillon de Paris, a venue which was once a slaughterhouse. The album was originally going to be called Roadworks. Paris reached number 8 on the Billboard 200 in late 1980 and went Gold immediately, while the live version of "Dreamer" hit the US Top 20.

Supertramp - You Started Laughing Retrospectacle - The Supertramp Anthology, 2005 04:02. Supertramp - Downstream Breakfast In America, 1979 03:28. Supertramp - Ain't Nobody But Me Paris, 1980 05:24. Supertramp - Take The Long Way Home Paris, 1980 04:57. Supertramp - Asylum Paris, 1980 06:51. Supertramp - Two Of Us Paris, 1980 01:25. Supertramp - Breakfast In America Paris, 1980 02:57. Supertramp - Fool's Overture Paris, 1980 10:57.

to Supertr mp - P ris '79 Music. ch Supertramp-Paris- 79 Music. com Supertramp: Paris '79 Music. eu Supertramp - Paris '79 video.

Shameless (US) Season 1 - COMPLETE . GB. Il Buono, Il Brutto, Il Cattivo (2009 e.  . If the content above is not authorized, please contact us via contactp2bt. p2bt.

Supertramp's Breakfast In America was the biggest selling album in the world in 1979. It spawned several hit singles and went on to win two Grammy Awards and sell in excess of 20 million copies.

Only 11 left in stock (more on the way). Supertramp's Breakfast In America was the biggest selling album in the world in 1979. Following the album's release Supertramp embarked on a 10 month world tour which arrived in Paris at the end of November.

Format : MPEG-4
Format profile : Base Media
Codec ID : isom
File size : 4.49 GiB
Duration : 1h 40mn
Overall bit rate mode : Variable
Overall bit rate : 6 391 Kbps
Encoded date : UTC 2013-02-18 05:19:28
Tagged date : UTC 2013-02-18 05:19:28
Video
ID : 1
Format : MPEG-4 Visual
Format profile : [email protected]
Format settings, BVOP : No
Format settings, QPel : No
Format settings, GMC : No warppoints
Format settings, Matrix : Default (H.263)
Codec ID : 20
Duration : 1h 40mn
Bit rate mode : Variable
Bit rate : 6 000 Kbps
Maximum bit rate : 8 540 Kbps
Width : 1 920 pixels
Height : 1 080 pixels
Display aspect ratio : 16:9
Frame rate mode : Constant
Frame rate : 29.970 fps
Color space : YUV
Chroma subsampling : 4:2:0
Bit depth : 8 bits
Scan type : Progressive
Compression mode : Lossy
Bits/(Pixel*Frame) : 0.097
Stream size : 4.21 GiB (94%)
Writing library : Lavc54.90.100
Encoded date : UTC 2013-02-18 05:19:28
Tagged date : UTC 2013-02-18 05:25:10
Audio
ID : 2
Format : AAC
Format/Info : Advanced Audio Codec
Format profile : LC
Codec ID : 40
Duration : 1h 40mn
Bit rate mode : Variable
Bit rate : 384 Kbps
Maximum bit rate : 440 Kbps
Channel(s) : 6 channels
Channel positions : Front: L C R, Side: L R, LFE
Sampling rate : 44.1 KHz
Compression mode : Lossy
Stream size : 279 MiB (6%)
Encoded date : UTC 2013-02-18 05:24:55
Tagged date : UTC 2013-02-18 05:25:10

Related music:
Pitbull Ft Ke$ha - Timber 1080p Music Video download Pitbull Ft Ke$ha - Timber 1080p Music Video
Video
English
85.8 MB
4.4
/images/5/7/pitbull-ft-ke24ha-timber-1080p-music-video-.jpg
Little Mix - Little Me 1080p Music Video download Little Mix - Little Me 1080p Music Video
Video
English
74.7 MB
4.9
/images/5/1/little-mix-little-me-1080p-music-video-.jpg
Hey Rascals - Tittle Song From Rascals download Hey Rascals - Tittle Song From Rascals
Video
Hindi
92.2 MB
4.2
/images/5/2/hey-rascals-tittle-song-from-rascals.jpg
Justin Timberlake - TKO 2013 download Justin Timberlake - TKO 2013
Video
English
41.8 MB
4.3
/images/5/0/justin-timberlake-tko-2013.jpg
Pitbull Ft Ke$ha - Timber 720p Music Video download Pitbull Ft Ke$ha - Timber 720p Music Video
Video
English
46.9 MB
4.3
/images/5/5/pitbull-ft-ke24ha-timber-720p-music-video-.jpg
Zero Hour Mashup 2013 Full Song - Best Of Bollywood - download Zero Hour Mashup 2013 Full Song - Best Of Bollywood -
Video
Hindi
60.6 MB
4.0
/images/5/5/zero-hour-mashup-2013-full-song-best-of-bollywood-.jpg
Passenger - Let Her Go 1080p Music Video download Passenger - Let Her Go 1080p Music Video
Video
English
86.7 MB
4.2
/images/5/0/passenger-let-her-go-1080p-music-video-.jpg
Zendaya - Replay 2013 download Zendaya - Replay 2013
Video
English
37.0 MB
4.4
/images/5/1/zendaya-replay-2013.jpg
Little Mix - Little Me 720p Music Video download Little Mix - Little Me 720p Music Video
Video
English
37.9 MB
4.1
/images/5/5/little-mix-little-me-720p-music-video-.jpg