Files 42316
» » Girls Generation - I Got A Boy x264 VX 1080p
Language: English
Size: 75.5 MB
Votes: 022
Downloaded: 52
Category: Video
Format: MP3, FLAC
4.8

File list

  • Girls' Generation - I Got A Boy (1080p) x264 [VX] [P2PDL].mp4 (70.0 MB)
  • 01 소녀시대 - I GOT A BOY.m4a (5.3 MB)
  • Cover.jpg (196.5 KB)
  • Info.nfo (10.0 KB)
  • Torrent downloaded from P2PDL.com.txt (0.0 KB)

Artist: Girls’ Generation PV: I GOT A BOY Genre: Po. Get this torrent Anonymous Download.

Get this torrent Anonymous Download.

Girls' Generation - I Got A Boy (1080p) x264 .mp470 MB. 01 소녀시대 - I GOT A BO. 4a5,420 K. nfo10 KB. Torrent downloaded from P2PDL. 4a5,420 KB. Cover. You cannot download any of those files from here.

Torrent info: Girls Generation - I Got A Boy {M4A+MP4} (1080p) x264 . . Download torrent: Girls Generation - I Got A Boy {M4A+MP4} (1080p) x264 torrent. Torrent trackers list (total 15 trackers): Tracker.

It was released on January 1, 2013 by . Entertainment and KT Music

It was released on January 1, 2013 by . Entertainment and KT Music. Produced by the group's long-time collaborator Yoo Young-jin and Will Simms, the song is described as a hybrid of various genres including bubblegum pop, dance, and electropop.

I got a boy meotjin I got a boy chakan (a nae wangjanim) I got a boy handsome boy nae mam da gajeogan (eonje i momeul guhareo wa jushil tengayo?) . 30 Replies to Girls’ Generation (소녀시대) – I Got A Boy. daniel says: January 1, 2013 at 2:05 am.

I got a boy meotjin I got a boy chakan (a nae wangjanim) I got a boy handsome boy nae mam da gajeogan (eonje i momeul guhareo wa jushil tengayo?) I got a boy meotjin I got a boy chakan (hayan kkumcheoreom) I got a boy awesome boy wanjeon banhaenna bwa (nal pume ana ollyeo naraga jushigetjo?) I got a boy meotjin I got a boy chakan (Oh oh oh eh oh, oh oh eh oh) I got a boy handsome boy nae mam da gajeogan I got a boy meotjin I got a boy chakan (Oh oh oh eh oh, oh oh eh oh) I got a boy awesome boy wanjeon banhaenna bw.


Girls Generation - I Got A Boy {M4A+MP4} (1080p) x264 [VX] [P2PDL]
1080p Full HD MP4 Video
+
128 Kbps/VBR M4A Audio

Code:

General
Complete name : Girls' Generation - I Got A Boy (1080p) x264 [VX] [P2PDL].mp4
Format : MPEG-4
Format profile : Base Media / Version 2
Codec ID : mp42
File size : 70.0 MiB
Video
ID : 1
Format : AVC
Format/Info : Advanced Video Codec
Width : 1 920 pixels
Height : 1 080 pixels
Display aspect ratio : 16:9
Frame rate mode : Variable
Frame rate : 23.976 fps
Color space : YUV
Scan type : Progressive
Bits/(Pixel*Frame) : 0.036
Stream size : 65.2 MiB (93%)
Writing library : x264 core 128
Audio
ID : 2
Format : AAC
Format/Info : Advanced Audio Codec
Duration : 5mn 4s
Bit rate mode : Variable
Bit rate : 128 Kbps
Channel(s) : 2 channels
Channel positions : Front: L R
Sampling rate : 48.0 KHz
Stream size : 4.62 MiB (7%)
Subtitles : No

Screens:


Thumbs:


Notes:
* Recommended to use latest version VLC Media Player.
* Install shark007 codecs in case of any kind of problem in playback (For non-VLC Media Player users).
* Alternatively, install Core AVC codecs, the fastest decoder that there is coupled with Community Center Codec Pack and play on Windows Media Player Classic.
Greets to: VYTO, a2zRG, Stumpie1971, Sheychi, Caveman, Ash968, Neon, Masta, TorDigger and staff members at ExtraTorrent, TPB, H33T, KAT, , PublicHD, Ahashare, TorrentMafia, Limetorrents, BTScene, P2PDL, and all others
Encoder Notes: Looking For Early Access To Anything You Can Provide DVDScr, R5, DVDRips, BluRay, Direct Audio, Early Music
Releases, Seedboxes, Links, Dedicated Servers anything u can provide, Advance / Promo CDs/DVDs. If You Got anything to
offer contact me at "[email protected]"

Related music:
Alicia Keys - Brand New Me x264 VX 1080p download Alicia Keys - Brand New Me x264 VX 1080p
Video
English
46.7 MB
4.3
/images/5/5/alicia-keys-brand-new-me-x264-vx-1080p.jpg
Trey Songz - Never Again x264 VX 1080p download Trey Songz - Never Again x264 VX 1080p
Video
English
42.3 MB
4.1
/images/5/3/trey-songz-never-again-x264-vx-1080p.jpg
Kesha - Cmon 2013 M4A+MP4 x264 VX 1080p download Kesha - Cmon 2013 M4A+MP4 x264 VX 1080p
Video
English
70.9 MB
4.5
/images/5/2/kesha-cmon-2013-m4a2bmp4-x264-vx-1080p.jpg
Rita Ora - Radioactive x264 VX 1080p download Rita Ora - Radioactive x264 VX 1080p
Video
English
47.5 MB
4.8
/images/5/9/rita-ora-radioactive-x264-vx-1080p.jpg
2 Chainz - Im Different x264 VX 1080p download 2 Chainz - Im Different x264 VX 1080p
Video
English
41.7 MB
4.3
/images/5/8/2-chainz-im-different-x264-vx-1080p.jpg
No Doubt - Looking Hot x264 VX 1080p download No Doubt - Looking Hot x264 VX 1080p
Video
English
51.7 MB
4.5
/images/5/1/no-doubt-looking-hot-x264-vx-1080p.jpg
Becky G - Problem x264 VX Hotel Transylvania OST Ft. Will.I.Am. 1080p download Becky G - Problem x264 VX Hotel Transylvania OST Ft. Will.I.Am. 1080p
Video
English
41.9 MB
4.1
/images/5/5/becky-g-problem-x264-vx-hotel-transylvania-ost-ft-william-1080p.jpg
Taylor Swift - 22 2013 M4A+MP4 x264 VX 1080p download Taylor Swift - 22 2013 M4A+MP4 x264 VX 1080p
Video
English
40.3 MB
4.1
/images/5/5/taylor-swift-22-2013-m4a2bmp4-x264-vx-1080p.jpg
Victoria Justice - All I Want Is Everything x264 VX 1080p download Victoria Justice - All I Want Is Everything x264 VX 1080p
Video
English
45.6 MB
4.4
/images/5/5/victoria-justice-all-i-want-is-everything-x264-vx-1080p.jpg