Files 42316
» » Anna Kendrick - Cups 720p Pitch Perfect's When I'm Gone Director's Cut
Language: English
Size: 60.3 MB
Votes: 674
Downloaded: 31
Category: Video
Format: MP3, FLAC
4.9

File list

  • Anna Kendrick - Cups [Pitch Perfect's When I'm Gone] [Director's Cut] 720p [Sbyky].mp4 (60.3 MB)

Music video by Anna Kendrick performing Cups (Pitch Perfect's "When I'm Gone") (Director's Cut). C) 2013 Universal Music Enterprises, a Division of UMG Recordings, Inc.

Music video by Anna Kendrick performing Cups (Pitch Perfect's "When I'm Gone") (Director's Cut). CUPS (pitch perfect s when I. Лицензиар. ARESA, CMRRA, BMG Rights Management, BMI - Broadcast Music In. Peermusic, ASCAP" и другие авторские общества (12).

Выберите имя/название: Anna Kendrick: Cups (Pitch Perfect's When I'm Gone). You're 'gonna miss me when I'm gone. Ты будешь скучать по мне, когда я уйду. I've got my ticket for the long way 'round. По популярности: Ariana Grande. У меня есть билет, чтобы уехать далеко-далеко. The one with the prettiest of views. Туда, где самые прекрасные пейзажи из всех, It's got mountains, it's got rivers.

Cups (Pitch Perfect’s When I’m Gone ) - Anna Kendrick. Открывайте новую музыку каждый день. Лента с персональными рекомендациями и музыкальными новинками, радио, подборки на любой вкус, удобное управление своей коллекцией. Миллионы композиций бесплатно и в хорошем качестве.

When I'm gone When I'm gone You’re gonna miss me when I'm gone You're gonna miss me by my hair . About Cups (Pop Version).

When I'm gone When I'm gone You’re gonna miss me when I'm gone You're gonna miss me by my hair You're gonna miss me everywhere, oh You're gonna miss me when I’m gone When I'm gone When I'm gone You're gonna miss me when I'm gone You're gonna. miss me by my walk You're gonna miss me by my talk, oh You're gonna miss me when I'm gone. The full version of the song that actress Anna Kendrick made famous in the movie Pitch Perfect. This single version of the song, retitled as the pop version is extended by an additional minute and features a pop beat in it’s instrumental.

Cups (Pitch Perfect's "When I'm Gone")". The song's music video was directed by Pitch Perfect's director Jason Moore. It was released on April 12, 2013 on Anna Kendrick's Vevo channel

Cups (Pitch Perfect's "When I'm Gone")". Single by Anna Kendrick. from the album Pitch Perfect (Original Motion Picture Soundtrack). It was released on April 12, 2013 on Anna Kendrick's Vevo channel. The video opens with Anna Kendrick in a restaurant's kitchen cutting dough into biscuits with a plastic cup while looking up longingly at some postcards of far-away places, such as Scotland and.

Description Music video by Anna Kendrick performing Cups (Pitch Perfect's "When I'm Gone") (Director's Cut). Music video by Anna Kendrick performing Cups (Pitch Perfect's "When I'm Gone") (Director's Cut). Appears on these pages.

When I'm gone, when I'm gone You're gonna miss me when I'm gone You're gonna miss me by my hair You're gonna . Cups (Pitch Perfect's "When I'm Gone")" lyrics provided for educational purposes and personal use only.

When I'm gone, when I'm gone You're gonna miss me when I'm gone You're gonna miss me by my hair You're gonna miss me everywhere, oh You're gonna miss me when I'm gone. When I'm gone, when I'm gone You're gonna miss me when I'm gone You're gonna miss me by my walk You're gonna miss me by my talk, oh You're gonna miss me when I'm gone.

Tag(s): Anna Kendrick Sbyky. Video ID : 1 Format : AVC Format/Info : Advanced Video Codec Format profile : [email protected] 1 Format settings, CABAC : Yes Format settings, ReFrames : 1 frame Codec ID : avc1 Codec ID/Info : Advanced Video Coding Duration : 4mn 21s Bit rate : 1 737 Kbps Maximum bit rate : 3 831 Kbps Width : 1 280 pixels Height : 720 pixels Display aspect ratio : 16:9.


General
Complete name : Anna Kendrick - Cups [Pitch Perfect's When I'm Gone] [Director's Cut] 720p [Sbyky].mp4
Format : MPEG-4
Format profile : Base Media / Version 2
Codec ID : mp42
File size : 60.3 MiB
Duration : 4mn 21s
Overall bit rate mode : Variable
Overall bit rate : 1 931 Kbps
Encoded date : UTC 2013-05-01 15:40:51
Tagged date : UTC 2013-05-01 15:40:51
Video
ID : 1
Format : AVC
Format/Info : Advanced Video Codec
Format profile : [email protected]
Format settings, CABAC : Yes
Format settings, ReFrames : 1 frame
Codec ID : avc1
Codec ID/Info : Advanced Video Coding
Duration : 4mn 21s
Bit rate : 1 737 Kbps
Maximum bit rate : 3 831 Kbps
Width : 1 280 pixels
Height : 720 pixels
Display aspect ratio : 16:9
Frame rate mode : Constant
Frame rate : 23.976 fps
Color space : YUV
Chroma subsampling : 4:2:0
Bit depth : 8 bits
Scan type : Progressive
Bits/(Pixel*Frame) : 0.079
Stream size : 54.2 MiB (90%)
Tagged date : UTC 2013-05-01 15:40:54
Audio
ID : 2
Format : AAC
Format/Info : Advanced Audio Codec
Format profile : LC
Codec ID : 40
Duration : 4mn 21s
Bit rate mode : Variable
Bit rate : 192 Kbps
Maximum bit rate : 203 Kbps
Channel(s) : 2 channels
Channel positions : Front: L R
Sampling rate : 44.1 KHz
Compression mode : Lossy
Stream size : 5.99 MiB (10%)
Title : IsoMedia File Produced by Google, 5-11-2011
Encoded date : UTC 2013-05-01 15:40:53
Tagged date : UTC 2013-05-01 15:40:54
Shared By Sbyky

Related music:
Anna Kendrick - Cups 1080p Pitch Perfect's When I'm Gone Director's Cut download Anna Kendrick - Cups 1080p Pitch Perfect's When I'm Gone Director's Cut
Video
English
110.5 MB
4.9
/images/5/7/anna-kendrick-cups-1080p-pitch-perfect5c27s-when-i5c27m-gone-director5c27s-cut-.jpg
Cher Lloyd Ft T I - I Wish 720p Music Video download Cher Lloyd Ft T I - I Wish 720p Music Video
Video
English
60.6 MB
4.3
/images/5/1/cher-lloyd-ft-t-i-i-wish-720p-music-video-.jpg
John Legend - All Of Me 720p Music Video download John Legend - All Of Me 720p Music Video
Video
English
62.7 MB
4.1
/images/5/4/john-legend-all-of-me-720p-music-video-.jpg
SchoolBoy Q Ft Kendrick Lamar - Collard Greens 720p download SchoolBoy Q Ft Kendrick Lamar - Collard Greens 720p
Video
English
94.9 MB
4.4
/images/5/3/schoolboy-q-ft-kendrick-lamar-collard-greens-720p-.jpg
Taylor Swift - We Are Never Ever Getting Back Together 720p Music Video download Taylor Swift - We Are Never Ever Getting Back Together 720p Music Video
Video
English
61.4 MB
4.0
/images/5/0/taylor-swift-we-are-never-ever-getting-back-together-720p-music-video-.jpg
Stromae - Papaoutai 720p Music Video download Stromae - Papaoutai 720p Music Video
Video
French
41.8 MB
4.6
/images/5/0/stromae-papaoutai-720p-music-video-.jpg
Ke$ha - Dirty Love 720p Music Video download Ke$ha - Dirty Love 720p Music Video
Video
English
77.0 MB
4.1
/images/5/7/ke24ha-dirty-love-720p-music-video-.jpg
J Cole - Work Out 720p Music Video download J Cole - Work Out 720p Music Video
Video
English
79.9 MB
4.2
/images/5/9/j-cole-work-out-720p-music-video-.jpg
Little Mix - Little Me 720p Music Video download Little Mix - Little Me 720p Music Video
Video
English
37.9 MB
4.1
/images/5/5/little-mix-little-me-720p-music-video-.jpg