Files 42316
» » Wisin & Yandel Ft Chris Brown, T-Pain - Algo Me Gusta De Ti 720p Music Video
Language: English
Size: 104.9 MB
Votes: 484
Downloaded: 25
Category: Video
Format: MP3, FLAC
4.6

File list

  • Wisin & Yandel Ft. Chris Brown, T-Pain - Algo Me Gusta De Ti [Music Video] 720p [Sbyky].mp4 (104.9 MB)

Music by Wisin & Yandel ! Категория. Algo Me Gusta De Ti (Album Version). Pitbull Ft. Chris Brown International love - Продолжительность: 3:49 Wish Wishic Recommended for you. 3:49.

Shazam: Top 100 Russia. Chris Brown, T-Pain, Wisin Y Yandel. Top Recognition of Alice. New Music: September 2019. Today on the radio: FM hits. New Music: October 2019. Download MP3. MP3 320Kbps, 1. 9 Mb MP3 128Kbps, . Mb MP3 64Kbps, . Mb. Chris Brown. Chris Brown, Tyga, Kevin McCall, Chris Brown featuring Tyga & Kevin McCall, Chris Brown feat. Tyga & Kevin McCall.

Wisin & yandel ft chris brown & t-pain – algo me gusta do TI. 4:35. Wisin & Yandel – Algo Me Gusta De Ti Feat Chris Brown & T-Pain. Wisin & Yandel feat Chris Brown & T-Pain – Algo Me Gusta De. 3:54. Super Exitos Latinos – Algo Me Gusta de Ti. 124. Wisin & Yandel Feat. Chris Brown & T-Pain – Algo Me Gusta De Ti. 4:55. Wisin & Yandel – Algo Me Gusta De Ti ft.

Прослушать Скачать 04:35. Algo Me Gusta De Ti Album Version. Прослушать Скачать 04:35. Algo Me Gusta De Ti. Прослушать Скачать 03:54. Super Exitos Latinos. Прослушать Скачать 03:40. Прослушать Скачать 04:41. Algo Me Gusta de Ti Karaoke. Прослушать Скачать 04:30. Прослушать Скачать 04:47. Algo Me Gusta De Ti Karaoke Version.

Chris Brown & T-Pain). Artist: Wisin & Yandel. Album: Líderes, 2012.

Wisen Yandel Ft Chris Brown Algo Me Gusta Ti (DatPiff Exclusive). Chris Brown & T-Pain (Best-Muzon. ru) Something About You. Wisin y Yandel Algo Me Gusta De Ti feat Chris Brown & T-Pain) (Prod. By Chris Jedai, O'Neill & Hyde ''El Verdadero Quimico''. (play).

Chris Brown, T-Pain). artist: Wisin & Yandel title: "Algo Me Gusta De Ti" Featuring(s): Chris Brown, T-Pain.


General
Complete name : Wisin & Yandel Ft. Chris Brown, T-Pain - Algo Me Gusta De Ti [Music Video] 720p [Sbyky].mp4
Format : MPEG-4
Format profile : Base Media / Version 2
Codec ID : mp42
File size : 105 MiB
Duration : 4mn 55s
Overall bit rate mode : Variable
Overall bit rate : 2 975 Kbps
Encoded date : UTC 2013-04-08 03:34:44
Tagged date : UTC 2013-04-08 03:34:44
Video
ID : 1
Format : AVC
Format/Info : Advanced Video Codec
Format profile : [email protected]
Format settings, CABAC : Yes
Format settings, ReFrames : 1 frame
Codec ID : avc1
Codec ID/Info : Advanced Video Coding
Duration : 4mn 55s
Bit rate : 2 780 Kbps
Maximum bit rate : 5 650 Kbps
Width : 1 280 pixels
Height : 720 pixels
Display aspect ratio : 16:9
Frame rate mode : Constant
Frame rate : 23.976 fps
Color space : YUV
Chroma subsampling : 4:2:0
Bit depth : 8 bits
Scan type : Progressive
Bits/(Pixel*Frame) : 0.126
Stream size : 98.0 MiB (93%)
Tagged date : UTC 2013-04-08 03:34:49
Audio
ID : 2
Format : AAC
Format/Info : Advanced Audio Codec
Format profile : LC
Codec ID : 40
Duration : 4mn 55s
Bit rate mode : Variable
Bit rate : 192 Kbps
Maximum bit rate : 201 Kbps
Channel(s) : 2 channels
Channel positions : Front: L R
Sampling rate : 44.1 KHz
Compression mode : Lossy
Stream size : 6.77 MiB (6%)
Title : IsoMedia File Produced by Google, 5-11-2011
Encoded date : UTC 2013-04-08 03:34:47
Tagged date : UTC 2013-04-08 03:34:49
Shared By Sbyky

Related music:
Pusha T Ft Chris Brown - Sweet Serenade 720p download Pusha T Ft Chris Brown - Sweet Serenade 720p
Video
English
48.7 MB
4.8
/images/5/0/pusha-t-ft-chris-brown-sweet-serenade-720p-.jpg
John Legend - All Of Me 720p Music Video download John Legend - All Of Me 720p Music Video
Video
English
62.7 MB
4.1
/images/5/4/john-legend-all-of-me-720p-music-video-.jpg
Chris Brown - Fine China 720p Music Video download Chris Brown - Fine China 720p Music Video
Video
English
67.4 MB
4.1
/images/5/3/chris-brown-fine-china-720p-music-video-.jpg
Wisin & Yandel Ft Chris Brown, T-Pain - Algo Me Gusta De Ti 1080p Music Video download Wisin & Yandel Ft Chris Brown, T-Pain - Algo Me Gusta De Ti 1080p Music Video
Video
English
200.2 MB
4.4
/images/5/7/wisin-26-yandel-ft-chris-brown2c-t-pain-algo-me-gusta-de-ti-1080p-music-video-.jpg
Ke$ha - Dirty Love 720p Music Video download Ke$ha - Dirty Love 720p Music Video
Video
English
77.0 MB
4.1
/images/5/7/ke24ha-dirty-love-720p-music-video-.jpg
Little Mix - Little Me 720p Music Video download Little Mix - Little Me 720p Music Video
Video
English
37.9 MB
4.1
/images/5/5/little-mix-little-me-720p-music-video-.jpg