Files 42316
» » Awesome Shadow Dance - Shrivastava - IBRG
Language: English
Size: 10.1 MB
Votes: 360
Downloaded: 37
Category: Video
Format: MP3, FLAC
4.9

File list

  • Awesome Shadow Dance - Shrivastava - IBRG.mp4 (10.1 MB)
  • stpicz.com Free Image Hosting Site.txt (0.6 KB)
  • Torrent Download From SilverTorrent.org.txt (0.1 KB)
  • Torrent Download From divxhunt.tk.txt (0.0 KB)
  • TOrrent Download From .org.txt (0.0 KB)
  • TOrrent Download From Kat.ph.txt (0.0 KB)

Awesome Dance on Chadti jawani by Professor Sanjeev Shrivastava.

Awesome Dance on Chadti jawani by Professor Sanjeev Shrivastava.

Awesome Shadow Dance - Shrivastava - IBRG. com Free Image Hosting Site. txt600 B. Torrent Download From SilverTorrent. txt89 B. Torrent Download From divxhunt. txt50 B. TOrrent Download From 1337x. txt31 B. TOrrent Download From Ka. h.

General Complete name : Awesome Shadow Dance - Shrivastava - IBRG. Video ID : 1 Format : AVC Format/Info : Advanced Video Codec Format profile : Format settings, CABAC : No Format settings, ReFrames : 3 frames Codec ID : avc1 Codec ID/Info : Advanced Video Coding Duration : 6mn 14s Bit rate mode : Variable Bit rate : 133 Kbps Maximum bit rate : 392 Kbps Width : 320 pixels Height : 208 pixels Display aspect ratio : 3:2 Frame.

10 April 2017 ·. Awesome Shadow Dance. This dance must not enter Nigeria. All the security agency should take note. Babi jan Full Hot Dance 2018. 17,504,242 Views · 3 October 2018. 1,936,714 Views · 5 May. 4:19. Jason Derulo, LAY, NCT 127 - Let's Shut Up & Dance Choreography by Mina Myoung with Jason Derulo.

Daryl West - Shadow Dancing, 06:20, . MB download mp3 full version here. Shadow Dancing: Best 2 songs. Daryl West - Shadow Dancing 08:13. A. Gibb, B. Gibb, Daryl West, Derek Brin, M. Gibb, R. Gibb - Shadow Dancing 03:43. Album: Shadow Dancing. Daryl West: best 2 tracks. Daryl West - Shadow Dancing Hi-Bias House Party, 1997 08:13. Daryl West, Mark Swaby - Pressure When It Rains in New York, 2015 03:22.

Ajay Shrivastava's portfolio. Photographer, Illustrator, Vector Artist. Shadow Art, Krishna Playing Flute Under Tree, in sunset background. Shadow art Music Playing and Dancing in Sunset. Shadow Art Shri Krishna Playing Flute, Peacock dancing.

Shadow Dance is not just another white rose: it is beautiful, it is mysterious, and it is ever-evolving. Named for the grey shadowy tints found in the heart of the rose amongst it's beige petals. Creating a surprisingly pleasant contrast the outer petals often display fresh tints of pale green. This trendy coloured rose will indefinitely make a beautiful addition to every bouquet. Shadow Dance plays shy, openingly slowly and has a good vase life for maximal enjoyment.

Awesome shadow dance. Published on Sat, 27 Jul 2013. 6 years ago. 1250 views. Braydon's Harlem Shake. 510 views.


General
Complete name : Awesome Shadow Dance - Shrivastava - IBRG.mp4
Format : MPEG-4
Format profile : Facebook
Codec ID : FACE
File size : 10.1 MiB
Duration : 6mn 14s
Overall bit rate : 227 Kbps
Video
ID : 1
Format : AVC
Format/Info : Advanced Video Codec
Format profile : [email protected]
Format settings, CABAC : No
Format settings, ReFrames : 3 frames
Codec ID : avc1
Codec ID/Info : Advanced Video Coding
Duration : 6mn 14s
Bit rate mode : Variable
Bit rate : 133 Kbps
Maximum bit rate : 392 Kbps
Width : 320 pixels
Height : 208 pixels
Display aspect ratio : 3:2
Frame rate mode : Constant
Frame rate : 15.000 fps
Color space : YUV
Chroma subsampling : 4:2:0
Bit depth : 8 bits
Scan type : Progressive
Bits/(Pixel*Frame) : 0.133
Stream size : 5.93 MiB (58%)
Writing library : x264 core 116
Audio
ID : 2
Format : AAC
Format/Info : Advanced Audio Codec
Format profile : LC
Codec ID : 40
Duration : 6mn 10s
Bit rate mode : Variable
Bit rate : 93.6 Kbps
Maximum bit rate : 111 Kbps
Channel(s) : 2 channels
Channel positions : Front: L R
Sampling rate : 44.1 KHz
Compression mode : Lossy
Stream size : 4.13 MiB (41%)
•––––––––•(-•*Navi Shrivastava*•-)•––––––––•
•––––––––•(-•*Indian Boys Release Group*•-)•––––––––•
•––––––––•(-•{Hindi Sad Shyri}•-)•––––––––•

Related music:
Maher Zain - Number One For Me 720p Music Video download Maher Zain - Number One For Me 720p Music Video
Video
English
72.8 MB
4.8
/images/5/8/maher-zain-number-one-for-me-720p-music-video-.jpg
Sevyn Streeter Ft Kid Ink - nEXt 1080p Music Video download Sevyn Streeter Ft Kid Ink - nEXt 1080p Music Video
Video
English
93.7 MB
4.4
/images/5/4/sevyn-streeter-ft-kid-ink-next-1080p-music-video-.jpg
Fall Out Boy - Where Did The Party Go 720p Music Video download Fall Out Boy - Where Did The Party Go 720p Music Video
Video
English
46.7 MB
4.9
/images/5/7/fall-out-boy-where-did-the-party-go-720p-music-video-.jpg
Fitness First Six Pack Monkey -Shrivastava -IBRG download Fitness First Six Pack Monkey -Shrivastava -IBRG
Video
English
2.8 MB
4.5
/images/5/8/fitness-first-six-pack-monkey-shrivastava-ibrg.jpg
Tere Liye - Veer-Zaara 720p HD Song download Tere Liye - Veer-Zaara 720p HD Song
Video
Hindi
114.3 MB
4.8
/images/5/7/tere-liye-veer-zaara-720p-hd-song.jpg
Hadouken! - Levitate 1080p People Are Awesome 2013 download Hadouken! - Levitate 1080p People Are Awesome 2013
Video
English
129.2 MB
4.1
/images/5/1/hadouken21-levitate-1080p-people-are-awesome-2013-.jpg
Shakira - Empire 1080p Music Video download Shakira - Empire 1080p Music Video
Video
English
94.2 MB
4.1
/images/5/0/shakira-empire-1080p-music-video-.jpg
If He Do Then Why You Not - Shrivastava - IBRG download If He Do Then Why You Not - Shrivastava - IBRG
Video
Hindi
1.9 MB
4.9
/images/5/5/if-he-do-then-why-you-not-shrivastava-ibrg.jpg
Ik Tu Hi Tu Hi - Mausam 720P HD Video Song 2011 download Ik Tu Hi Tu Hi - Mausam 720P HD Video Song 2011
Video
Hindi
86.3 MB
4.4
/images/5/7/ik-tu-hi-tu-hi-mausam-720p-hd-video-song-2011.jpg