Files 42316
» » Daddy Yankee - La Nueva Y La Ex 720p Music Video
Language: Spanish
Size: 33.2 MB
Votes: 821
Downloaded: 47
Category: Video
Format: MP3, FLAC
4.6

File list

  • Daddy Yankee - La Nueva Y La Ex [Music Video] 720p [Sbyky].MP4 (33.2 MB)


General
Complete name : Daddy Yankee - La Nueva Y La Ex [Music Video] 720p [Sbyky].MP4
Format : MPEG-4
Format profile : Base Media
Codec ID : isom
File size : 33.2 MiB
Duration : 4mn 0s
Overall bit rate mode : Variable
Overall bit rate : 1 158 Kbps
Encoded date : UTC 2014-02-15 16:42:35
Tagged date : UTC 2014-02-15 16:42:35
Video
ID : 1
Format : AVC
Format/Info : Advanced Video Codec
Format profile : [email protected]
Format settings, CABAC : Yes
Format settings, ReFrames : 3 frames
Codec ID : avc1
Codec ID/Info : Advanced Video Coding
Duration : 4mn 0s
Duration_LastFrame : -41ms
Bit rate : 1 029 Kbps
Width : 1 280 pixels
Height : 720 pixels
Display aspect ratio : 16:9
Frame rate mode : Constant
Frame rate : 24.000 fps
Color space : YUV
Chroma subsampling : 4:2:0
Bit depth : 8 bits
Scan type : Progressive
Bits/(Pixel*Frame) : 0.047
Stream size : 29.5 MiB (89%)
Encoded date : UTC 2014-02-15 16:42:35
Tagged date : UTC 2014-02-15 16:42:35
Audio
ID : 2
Format : AAC
Format/Info : Advanced Audio Codec
Format profile : LC
Codec ID : 40
Duration : 4mn 0s
Bit rate mode : Variable
Bit rate : 126 Kbps
Channel(s) : 2 channels
Channel positions : Front: L R
Sampling rate : 44.1 KHz
Compression mode : Lossy
Stream size : 3.60 MiB (11%)
Encoded date : UTC 2014-02-15 16:41:50
Tagged date : UTC 2014-02-15 16:41:50
Shared By Sbyky

Related music:
Daddy Yankee - La Nueva Y La Ex 1080p Music Video download Daddy Yankee - La Nueva Y La Ex 1080p Music Video
Album
Spanish
63.0 MB
4.8
/images/5/7/daddy-yankee-la-nueva-y-la-ex-1080p-music-video-.jpg
Fall Out Boy - Where Did The Party Go 720p Music Video download Fall Out Boy - Where Did The Party Go 720p Music Video
Video
English
46.7 MB
4.9
/images/5/7/fall-out-boy-where-did-the-party-go-720p-music-video-.jpg
Wanessa Ft Soulja Boy - Turn It Up 720p Music Video download Wanessa Ft Soulja Boy - Turn It Up 720p Music Video
Video
English
56.6 MB
4.2
/images/5/0/wanessa-ft-soulja-boy-turn-it-up-720p-music-video-.jpg
Justin Timberlake - Not A Bad Thing 720p Music Video download Justin Timberlake - Not A Bad Thing 720p Music Video
Video
English
59.2 MB
4.3
/images/5/2/justin-timberlake-not-a-bad-thing-720p-music-video-.jpg
Lily Allen - Air Balloon 720p Music Video download Lily Allen - Air Balloon 720p Music Video
Video
English
58.5 MB
4.2
/images/5/3/lily-allen-air-balloon-720p-music-video-.jpg
Fall Out Boy Ft Courtney Love - Rat A Tat 720p Music Video download Fall Out Boy Ft Courtney Love - Rat A Tat 720p Music Video
Video
English
61.3 MB
4.2
/images/5/2/fall-out-boy-ft-courtney-love-rat-a-tat-720p-music-video-.jpg
Rico Love - Bitches Be Like 720p Music Video download Rico Love - Bitches Be Like 720p Music Video
Video
English
40.8 MB
4.5
/images/5/0/rico-love-bitches-be-like-720p-music-video-.jpg
Redlight King - City Life 720p Music Video download Redlight King - City Life 720p Music Video
Video
English
29.1 MB
4.2
/images/5/7/redlight-king-city-life-720p-music-video-.jpg