Files 42316
» » Britney Spears - Work Bitch 2013
Language: English
Size: 42.1 MB
Votes: 295
Downloaded: 25
Category: Video
Format: MP3, FLAC
4.1

File list

  • Britney Spears - Work Bitch.mp4 (42.1 MB)
  • Britney Spears - Work Bitch.srt (3.4 KB)

Music video by Britney Spears performing Work Bitch.

Music video by Britney Spears performing Work Bitch.

Work Bitch" (stylized as "Work B ch") is a song recorded by American singer Britney Spears for her eighth studio album, Britney Jean (2013). It was written by Spears, William "will. am" Adams, Otto "Knows" Jettman, Sebastian Ingrosso, Anthony Preston and Ruth-Anne Cunningham. The song's production was handled by Ingrosso, Pasquale Verrigni, Jettman and Adams, while vocal production was done by Adams and Preston.

Work Bitch" (stylized as "Work B ch!") is a song recorded by American singer Britney Spears for her eighth studio album Britney Jean (2013). Previously, in 2012, Spears and will. am collaborated on the song "Scream & Shout"; will. am was later announced in March 2013 as the executive producer for Spears' eighth studio album. In preparation for the single and album, Spears began working with a vocal coach and choreography collaboratively.

Work Bitch (In the Style of Britney Spears) - Playback Audition. Открывайте новую музыку каждый день. Лента с персональными рекомендациями и музыкальными новинками, радио, подборки на любой вкус, удобное управление своей коллекцией. Миллионы композиций бесплатно и в хорошем качестве.

Work Bitch (stylized as Work B ch) is a song recorded by American singer Britney Spears for her eighth studio album, Britney Jean (2013). It was written by Spears, William will. am Adams, Otto Knows Jettman, Sebastian Ingrosso, Anthony Preston and Ruth-Anne Cunningham. Britney Jean Spears is an American singer, songwriter, dancer, and actress. Born in McComb, Mississippi and raised in Kentwood, Louisiana, she appeared in stage productions and television series, before signing with Jive Records in 1997. Spears's first two studio albums,.

On September 10, 2013; Spears confirmed "Work Bitch"'s worldwide radio premiere for September 16, 2013, at 6 . On September 11, Spears revealed the writers of the song.


[General]
Format : MPEG-4
Format profile : Base Media
Codec ID : isom
File size : 42.1 MiB
Duration : 3mn 54s
Overall bit rate mode : Variable
Overall bit rate : 1 504 Kbps
Encoded date : UTC 2013-09-30 00:40:56
Tagged date : UTC 2013-09-30 00:40:56
Writing application : Lavf54.63.104
[Video]
ID : 1
Format : AVC
Format/Info : Advanced Video Codec
Format profile : [email protected]
Format settings, CABAC : Yes
Format settings, ReFrames : 1 frame
Codec ID : avc1
Codec ID/Info : Advanced Video Coding
Duration : 3mn 54s
Bit rate : 1 385 Kbps
Width : 852 pixels
Height : 480 pixels
Display aspect ratio : 16:9
Frame rate mode : Constant
Frame rate : 23.976 fps
Color space : YUV
Chroma subsampling : 4:2:0
Bit depth : 8 bits
Scan type : Progressive
Bits/(Pixel*Frame) : 0.141
Stream size : 37.8 MiB (90%)
Writing library : x264 core 129
Encoded date : UTC 2013-09-30 00:40:56
Tagged date : UTC 2013-09-30 00:40:56
[Audio]
ID : 2
Format : AAC
Format/Info : Advanced Audio Codec
Format profile : LC
Codec ID : 40
Duration : 3mn 54s
Duration_FirstFrame : 70ms
Bit rate mode : Variable
Bit rate : 148 Kbps
Maximum bit rate : 176 Kbps
Channel(s) : 2 channels
Channel positions : Front: L R
Sampling rate : 44.1 KHz
Compression mode : Lossy
Stream size : 4.13 MiB (10%)
Encoded date : UTC 2013-09-30 00:40:56
Tagged date : UTC 2013-09-30 00:40:56

Related music:
Avicii - Wake Me Up 2013 download Avicii - Wake Me Up 2013
Video
English
43.3 MB
4.1
/images/5/7/avicii-wake-me-up-2013.jpg
Britney Spears - Ooh La La 720p Music Video download Britney Spears - Ooh La La 720p Music Video
Video
English
66.7 MB
4.6
/images/5/2/britney-spears-ooh-la-la-720p-music-video-.jpg
Little Mix - Little Me 1080p Music Video download Little Mix - Little Me 1080p Music Video
Video
English
74.7 MB
4.9
/images/5/1/little-mix-little-me-1080p-music-video-.jpg
Britney Spears - Ooh La La 1080p Music Video download Britney Spears - Ooh La La 1080p Music Video
Video
English
119.6 MB
4.7
/images/5/9/britney-spears-ooh-la-la-1080p-music-video-.jpg
Fifth Harmony - Miss Movin' On 2013 download Fifth Harmony - Miss Movin' On 2013
Video
English
52.0 MB
4.6
/images/5/2/fifth-harmony-miss-movin27-on-2013.jpg
Drake - Hold On, We're Going Home ft Majid Jordan 2013 download Drake - Hold On, We're Going Home ft Majid Jordan 2013
Video
English
47.1 MB
4.6
/images/5/4/drake-hold-on2c-we27re-going-home-ft-majid-jordan-2013.jpg
Lana Del Rey - Summertime Sadness 2012 download Lana Del Rey - Summertime Sadness 2012
Video
English
37.1 MB
4.8
/images/5/0/lana-del-rey-summertime-sadness-2012.jpg
Zendaya - Replay 2013 download Zendaya - Replay 2013
Video
English
37.0 MB
4.4
/images/5/1/zendaya-replay-2013.jpg