Files 42316
» » Sage The Gemini - Good Thing ft Nick Jonas 1080p mp4
Language: English
Size: 114.5 MB
Votes: 818
Downloaded: 35
Category: Video
Format: MP3, FLAC
4.6

File list

  • Sage The Gemini - Good Thing ft. Nick Jonas [P-DawG].mp4 (114.5 MB)

Download MP3. MP3 320Kbps, . 2 Mb MP3 128Kbps, . Mb. Sage The Gemini. 1 2 3 4 5. Related songs.

Nick Jonas download Mp4 1080p and Sage The Gemini - Good Thing f. Nick Jonas video was published by SageTheGeminiVEVO on May 21, 2015 and has reached 23,783,701 views in three years.

Watch Sage The Gemini - Good Thing ft. Nick Jonas youtube video without ads and Sage The Gemini - Good Thing ft. Nick Jonas mp4 download 1080p, 720p also Sage The Gemini - Good Thing ft. Nick Jonas mp3 download 320kbps.

ID : 1 Format : AVC Format/Info : Advanced Video Codec Format profile : Format settings, CABAC : Yes Format settings, ReFrames : 2 frames Codec ID : avc1 Codec ID/Info : Advanced Video Coding Duration : 3mn 56s Bit rate mode : Variable Bit rate : 3 925 Kbps Width : 1 920 pixels Height : 1 080 pixels Display aspect ratio : 16:9 Frame rate mode : Constant.

With Priscilla Huggins Ortiz, Sage the Gemini, Nick Jonas. Oscars Best Picture Winners Golden Globes Emmys San Diego Comic-Con Sundance Toronto Int'l Film Festival Awards Central Festival Central. For Industry Professionals. Nick Jonas: Good Thing (2015). Not Rated Video 4 min Short, Music.

Sage The Gemini feat. Sage The Gemini feat. alan walker lily piano version mp3. bonnie and clyde jayz. pj morton ft le andria johnson. Justin Bieber, Iamsu! Gas Pedal. Sage The Gemini Now and Later. Berner, P-Lo Give It Up. (play). Sage The Gemini Red Nose. all songs . Other listen. a book of the sea billy esteban.

June Hits Best 2 songs. Sunfly Karaoke - Too Drunk To F k Originally Performed By Dead Kennedys 02:36. Sunfly Karaoke - This Summer's Gonna Hurt Like A Motherf r (Explict) Originally Performed By Maroon 5 03:42. Album: June Hits Sunfly Karaoke: best 2 tracks. Sunfly Karaoke - Everything to Me Sunfly Hits 332, 2013 03:20. Sunfly Karaoke - Stop Draggin' My Heart Around in the Style of Stevie Nicks & Tom Petty & the Heartbreakers Hot Pack 4 Disc 7, 2011 03:59.

ru скачать mp3 в хорошем качестве, либо слушайте песню Sage The Gemini feat. Sage the Gemini Ft Nick Jonas – Good Thing (Piano Cover) - PiaNotes. Nick Jonas - Good Thing, Sage The Gemini feat. Nick Jonas - Good Thing, а также рингтоны на звонок и все новые треки. Разные исполнители – Good Thing (workout mix) (explicit. :46. Nick Jonas (Best-Muzon. Разные исполнители – Good Thing (explicit) (Instrumental versio. Nick Jonas – Good Thing. Sage the Gemini ft.

777josem ProRes 1080p LPCM V. I. P. Uploader. Nick Jonas - Good Thing (Palladia) 1080i HDTV HDMania. Hidden content cannot be quoted.

[P-DawG]

Cover:-

Screens:-
http://imgserve.net/img-555fee7108692.html
General Info:-
General
Complete name : Sage The Gemini - Good Thing ft. Nick Jonas [P-DawG].mp4
Format : MPEG-4
Format profile : Base Media
Codec ID : isom
File size : 115 MiB
Duration : 3mn 56s
Overall bit rate : 4 055 Kbps
Video
ID : 1
Format : AVC
Format/Info : Advanced Video Codec
Format profile : [email protected]
Format settings, CABAC : Yes
Format settings, ReFrames : 2 frames
Codec ID : avc1
Codec ID/Info : Advanced Video Coding
Duration : 3mn 56s
Bit rate mode : Variable
Bit rate : 3 925 Kbps
Width : 1 920 pixels
Height : 1 080 pixels
Display aspect ratio : 16:9
Frame rate mode : Constant
Frame rate : 23.976 fps
Color space : YUV
Chroma subsampling : 4:2:0
Bit depth : 8 bits
Scan type : Progressive
Bits/(Pixel*Frame) : 0.079
Stream size : 111 MiB (97%)
Audio
ID : 2
Format : AAC
Format/Info : Advanced Audio Codec
Format profile : LC
Codec ID : 40
Duration : 3mn 56s
Bit rate mode : Constant
Bit rate : 126 Kbps
Channel(s) : 2 channels
Channel positions : Front: L R
Sampling rate : 44.1 KHz
Compression mode : Lossy
Stream size : 3.55 MiB (3%)

Related music:
The Weeknd - The Hills 1080p mp4 download The Weeknd - The Hills 1080p mp4
Video
English
84.1 MB
4.7
/images/5/0/the-weeknd-the-hills-1080p-mp4.jpg
Ace Hood - Mr Nice Guy 720p download Ace Hood - Mr Nice Guy 720p
Video
English
82.2 MB
4.3
/images/noimage.jpg
Ciara - I Bet 1080p mp4 download Ciara - I Bet 1080p mp4
Video
English
104.1 MB
4.3
/images/5/6/ciara-i-bet-1080p-mp4.jpg
Sage The Gemini - Red Nose 1080p download Sage The Gemini - Red Nose 1080p
Video
English
150.6 MB
4.1
/images/5/1/sage-the-gemini-red-nose-1080p-.jpg
ZAYN - LIKE I WOULD 1080p mp4 download ZAYN - LIKE I WOULD 1080p mp4
Video
English
102.9 MB
4.5
/images/5/4/zayn-like-i-would-1080p-mp4.jpg
Mark Ronson - Uptown Funk ft Bruno Mars 1080p download Mark Ronson - Uptown Funk ft Bruno Mars 1080p
Video
English
121.2 MB
4.4
/images/5/3/mark-ronson-uptown-funk-ft-bruno-mars-1080p-.jpg
Chris Brown, Tyga - Ayo 1080p download Chris Brown, Tyga - Ayo 1080p
Video
English
176.0 MB
4.6
/images/noimage.jpg
Taylor Swift - Style mp4 download Taylor Swift - Style mp4
Video
English
85.9 MB
4.2
/images/5/6/taylor-swift-style-mp4.jpg