Files 42316
» » Shakira - Empire 1080p Music Video
Language: English
Size: 94.2 MB
Votes: 953
Downloaded: 22
Category: Video
Format: MP3, FLAC
4.1

File list

  • Shakira - Empire [Music Video] 1080p [Sbyky].MP4 (94.2 MB)

Смотрите видео на YouTube без рекламы. Shakira - Nothing Else Matters/Despedida Medley (Live from Paris) - Продолжительность: 5:54 Shakira Recommended for you.

Смотрите видео на YouTube без рекламы. 5:54. TOP 10 MOST EMOTIONAL Blind Auditions in The Voice that made the Coaches cry - Продолжительность: 19:33 Best of The Voice Recommended for you.

Artist: Shakira Title: Empire Year: 2014 Source: Master Label Video Codec: ProRes 1080p. We have an extense video vault, and you can have it too, exchange videos with us. Only accept Best Quality sources like ProRes, DV, or High Bitrate Master Sources. Sample: Write to admincvidcollector. com if you want this video. Video Services like PromoOnly, ETV, or videos with TAG or Logo, encoded videos to mkv, etc, not accepted.

Shakira - Empire (Master 1080p). Video: MPEG4 Video 1920x1080(16:9) 2. 76fps 6443Kbps Audio: PCM 48000Hz stereo 1536 kbps.

Request) Shakira - Empire (The 2014 Billboard Music Awards). Shakira HDL(spanish version) Billboard Latin Music Awards. PedroAzalean12, Jul 18, 2019, in forum: Requests. Replies: 1. Views: 84. ThePixelFarm. urielshak, May 18, 2019, in forum: Requests. Views: 138. silverandrade.

Новый видеоклип Shakira на песню Empire из альбома Shakira (2014). Lizzo - Jerome (Live at the 2019 American Music Awards) 2. 1. Opeth - Universal Truth 2. The Temper Trap - Sweet Disposition (Blazy & Sighter Rmx) 2.

Shakira - Empire (-H264). 21 Jun 18, 07:14 AM. virus : how should i get invitation code?


General
Complete name : Shakira - Empire [Music Video] 1080p [Sbyky].MP4
Format : MPEG-4
Format profile : Base Media
Codec ID : isom
File size : 94.2 MiB
Duration : 4mn 2s
Overall bit rate mode : Variable
Overall bit rate : 3 258 Kbps
Encoded date : UTC 2014-03-24 04:08:42
Tagged date : UTC 2014-03-24 04:08:42
Video
ID : 1
Format : AVC
Format/Info : Advanced Video Codec
Format profile : [email protected]
Format settings, CABAC : Yes
Format settings, ReFrames : 2 frames
Codec ID : avc1
Codec ID/Info : Advanced Video Coding
Duration : 4mn 2s
Bit rate : 3 130 Kbps
Width : 1 920 pixels
Height : 1 080 pixels
Display aspect ratio : 16:9
Frame rate mode : Variable
Frame rate : 23.976 fps
Minimum frame rate : 23.974 fps
Maximum frame rate : 24.543 fps
Color space : YUV
Chroma subsampling : 4:2:0
Bit depth : 8 bits
Scan type : Progressive
Bits/(Pixel*Frame) : 0.063
Stream size : 90.5 MiB (96%)
Encoded date : UTC 2014-03-24 04:08:42
Tagged date : UTC 2014-03-24 04:08:42
Audio
ID : 2
Format : AAC
Format/Info : Advanced Audio Codec
Format profile : LC
Codec ID : 40
Duration : 4mn 2s
Bit rate mode : Variable
Bit rate : 126 Kbps
Channel(s) : 2 channels
Channel positions : Front: L R
Sampling rate : 44.1 KHz
Compression mode : Lossy
Stream size : 3.63 MiB (4%)
Encoded date : UTC 2014-03-24 04:08:26
Tagged date : UTC 2014-03-24 04:08:26
Shared By Sbyky

Related music:
Sevyn Streeter Ft Kid Ink - nEXt 1080p Music Video download Sevyn Streeter Ft Kid Ink - nEXt 1080p Music Video
Video
English
93.7 MB
4.4
/images/5/4/sevyn-streeter-ft-kid-ink-next-1080p-music-video-.jpg
One Direction - You & I 1080p Music Video download One Direction - You & I 1080p Music Video
Video
English
111.1 MB
4.5
/images/5/5/one-direction-you-26-i-1080p-music-video-.jpg
Katy Perry - Birthday 1080p Music Video download Katy Perry - Birthday 1080p Music Video
Video
English
214.8 MB
4.2
/images/5/2/katy-perry-birthday-1080p-music-video-.jpg
Karmin - I Want It All 1080p Music Video download Karmin - I Want It All 1080p Music Video
Video
English
85.2 MB
4.6
/images/5/4/karmin-i-want-it-all-1080p-music-video-.jpg
Coldplay - Magic 1080p Music Video download Coldplay - Magic 1080p Music Video
Video
English
153.0 MB
4.9
/images/5/5/coldplay-magic-1080p-music-video-.jpg
50 Cent Ft Joe - Big Rich Town 1080p Music Video download 50 Cent Ft Joe - Big Rich Town 1080p Music Video
Video
English
72.7 MB
4.3
/images/5/7/50-cent-ft-joe-big-rich-town-1080p-music-video-.jpg
Beyoncé - Pretty Hurts 1080p Music Video download Beyoncé - Pretty Hurts 1080p Music Video
Video
English
178.5 MB
4.2
/images/5/4/beyoncc3a9-pretty-hurts-1080p-music-video-.jpg
Priyanka Chopra - I Can't Make You Love Me 1080p Music Video download Priyanka Chopra - I Can't Make You Love Me 1080p Music Video
Video
English
112.8 MB
4.0
/images/5/3/priyanka-chopra-i-can27t-make-you-love-me-1080p-music-video-.jpg
Lindsey Stirling Ft Lzzy Hale - Shatter Me 1080p Music Video download Lindsey Stirling Ft Lzzy Hale - Shatter Me 1080p Music Video
Video
English
143.7 MB
4.8
/images/5/3/lindsey-stirling-ft-lzzy-hale-shatter-me-1080p-music-video-.jpg