Files 42316
» » French Montana - Ain't Worried About Nothin 720p
Language: English
Size: 71.5 MB
Votes: 981
Downloaded: 29
Category: Video
Format: MP3, FLAC
4.7

File list

  • French Montana - Ain't Worried About Nothin [Explicit] 720p [Sbyky].mp4 (71.5 MB)

ain't worried 'bout nothin' (nothin') Nigga, I ain't worried 'bout nothin' Ridin' 'round with that work (work), strapped up. .Montana I ain't worried 'bout a mothafuckin' thang, nigga See you niggas shakin' in your mothafuckin' boots The untouchable empire, dream team!

ain't worried 'bout nothin' (nothin') Nigga, I ain't worried 'bout nothin' Ridin' 'round with that work (work), strapped up with that Nina (Nina) Got two bad bitches with me (with me), Molly and Aquafina ('fina) Money don't mean nothin', niggas don't feel you when they see you (see you). Montana I ain't worried 'bout a mothafuckin' thang, nigga See you niggas shakin' in your mothafuckin' boots The untouchable empire, dream team!

Ain't worried 'bout nothin' Nigga, I ain't worried 'bout nothin' Nigga, I ain't . for the paparazzi And I'm all white like french montana Oh shit there goes hannah montana Acting like a little southern girl Now twerking like I grew up in Atlanta.

Ain't worried 'bout nothin' Nigga, I ain't worried 'bout nothin' Nigga, I ain't worried 'bout nothin' Nigga, I ain't worried 'bout nothin'. Ain't worried 'bout nothin' Bitch, I ain't worried 'bout nothin' I ain't really worried 'bout nothin' Bitch, I ain't worried 'bout nothin'.

Ain t Worried About Nothin онлайн или скачать mp3 в хорошем качестве 320 kbps на телефон (андроид, айфон) вы можете на сайте YoSound. French Montana – Ain t Worried About Nothin Remix Feat Th. :34. Mike Nice – Banan (French Cyrus . :32. French Montana – Ain't Worried About Nothin. French Montana – Ain t Worried About Nothin (Deep Cover, Yax. :10. French Montana – Ain t Worried Bout Nothin. French Montana – Ain t Worried About Nothin (Remix) feat. French Montana ft Miley Cyrus – Ain t Worried About Nothin (Prod. French Montana – Ain t Worried about Nothin.

French Montana Ain't Worried About Nothin 03:32. Diddy, Rick Ross, Snoop Dogg Ain't Worried About Nothin 04:16. French Montana Ain t Worried About Nothin 03:35. French Montana Ain t Worried About Nothin 02:28. French Montana Ain t Worried About Nothin 03:53. French Montana Ain t Worried About Nothin (new bass) 03:32.

Future & Rick Ross (Official Video) HD 720p. French Montana - Ain't Worried About Nothin (Official Video).

Ain't Worried About Nothin. Artist: French Montana. French Montana quotes. Album: Excuse My French (Deluxe), 2013.

Ain't Worried About Nothin (In the Style of French Montana) - Single. Открывайте новую музыку каждый день. Лента с персональными рекомендациями и музыкальными новинками, радио, подборки на любой вкус, удобное управление своей коллекцией. Миллионы композиций бесплатно и в хорошем качестве.


General
Complete name : French Montana - Ain't Worried About Nothin [Explicit] 720p [Sbyky].mp4
Format : MPEG-4
Format profile : Base Media / Version 2
Codec ID : mp42
File size : 71.5 MiB
Duration : 3mn 35s
Overall bit rate mode : Variable
Overall bit rate : 2 788 Kbps
Encoded date : UTC 2013-06-03 16:20:22
Tagged date : UTC 2013-06-03 16:20:22
Video
ID : 1
Format : AVC
Format/Info : Advanced Video Codec
Format profile : [email protected]
Format settings, CABAC : Yes
Format settings, ReFrames : 1 frame
Codec ID : avc1
Codec ID/Info : Advanced Video Coding
Duration : 3mn 35s
Bit rate : 2 593 Kbps
Maximum bit rate : 5 568 Kbps
Width : 1 280 pixels
Height : 720 pixels
Display aspect ratio : 16:9
Frame rate mode : Constant
Frame rate : 24.000 fps
Color space : YUV
Chroma subsampling : 4:2:0
Bit depth : 8 bits
Scan type : Progressive
Bits/(Pixel*Frame) : 0.117
Stream size : 66.5 MiB (93%)
Tagged date : UTC 2013-06-03 16:20:24
Audio
ID : 2
Format : AAC
Format/Info : Advanced Audio Codec
Format profile : LC
Codec ID : 40
Duration : 3mn 35s
Bit rate mode : Variable
Bit rate : 192 Kbps
Maximum bit rate : 203 Kbps
Channel(s) : 2 channels
Channel positions : Front: L R
Sampling rate : 44.1 KHz
Compression mode : Lossy
Stream size : 4.92 MiB (7%)
Title : IsoMedia File Produced by Google, 5-11-2011
Encoded date : UTC 2013-06-03 16:20:23
Tagged date : UTC 2013-06-03 16:20:24
Shared By Sbyky

Related music:
Jennifer Lopez Ft French Montana - I Luh Ya Papi 720p download Jennifer Lopez Ft French Montana - I Luh Ya Papi 720p
Video
English
85.4 MB
4.7
/images/5/6/jennifer-lopez-ft-french-montana-i-luh-ya-papi-720p-.jpg
2 Chainz - I'm Different 720p download 2 Chainz - I'm Different 720p
Video
English
76.5 MB
4.3
/images/5/0/2-chainz-i27m-different-720p-.jpg
Akon Ft French Montana - Hurt Somebody 1080p download Akon Ft French Montana - Hurt Somebody 1080p
Video
English
153.8 MB
4.7
/images/5/0/akon-ft-french-montana-hurt-somebody-1080p-.jpg
Eminem - Berzerk 720p download Eminem - Berzerk 720p
Video
English
97.3 MB
4.2
/images/5/9/eminem-berzerk-720p-.jpg
John Legend - All Of Me 720p Music Video download John Legend - All Of Me 720p Music Video
Video
English
62.7 MB
4.1
/images/5/4/john-legend-all-of-me-720p-music-video-.jpg
Stromae - Papaoutai 720p Music Video download Stromae - Papaoutai 720p Music Video
Video
French
41.8 MB
4.6
/images/5/0/stromae-papaoutai-720p-music-video-.jpg
2 Chainz Ft Cap 1 - Where U Been 720p download 2 Chainz Ft Cap 1 - Where U Been 720p
Video
English
84.8 MB
4.7
/images/5/6/2-chainz-ft-cap-1-where-u-been-720p-.jpg
Little Mix - Little Me 720p Music Video download Little Mix - Little Me 720p Music Video
Video
English
37.9 MB
4.1
/images/5/5/little-mix-little-me-720p-music-video-.jpg
Rihanna - Pour It Up 720p download Rihanna - Pour It Up 720p
Video
English
54.9 MB
4.7
/images/5/1/rihanna-pour-it-up-720p-.jpg