Files 42316
» » One Direction - Midnight Memories 1080p Music Video
Language: English
Size: 93.9 MB
Votes: 952
Downloaded: 22
Category: Video
Format: MP3, FLAC
4.4

File list

  • One Direction - Midnight Memories [Music Video] 1080p [Sbyky].MP4 (93.9 MB)

Thousands of YouTube videos with English-Chinese subtitles! Now you can learn to understand native speakers, expand your vocabulary, and .

Thousands of YouTube videos with English-Chinese subtitles! Now you can learn to understand native speakers, expand your vocabulary, and improve your pronunciation.

Just in case you missed this lovely video. So on January 31st, 2014, the fab British/Irish band released its newest music video for their song "Midnight Memories" and it was fantastic. Here's a quick (or not so quick but rather humorously detailed) recap: So to start out the boys are at a party, and it's clearly a lame one.

One Direction - Midnight Memories One Direction - Midnight Memories One Direction - Midnight Memories One Direction - Midnight Memories. One Direction - Midnight Memories One Direction - Midnight Memories One Direction - Midnight Memories One Direction - Midnight Memories. One Direction Performing Midnight Memories Live The X-Factor One direction Live Midnight Memories Live THE X FACTOR midnight memories one direction live at X-FACTOR one direction live the x factor uk midnight memories one directionMidnight Memories Live 15/12/13 1080p.

Music by: Liam Payne, John Ryan, Julian Bunetta, Jamie Scott, Louis Tomlinson. P): Sony Music Entertainment. Lyrics by: Liam Payne, John Ryan, Julian Bunetta, Jamie Scott, Louis Tomlinson. C): Sony Music Entertainment. Parameters: 3/00:02:55/C.


General
Complete name : One Direction - Midnight Memories [Music Video] 1080p [Sbyky].MP4
Format : MPEG-4
Format profile : Base Media
Codec ID : isom
File size : 93.9 MiB
Duration : 3mn 20s
Overall bit rate mode : Variable
Overall bit rate : 3 923 Kbps
Encoded date : UTC 2014-02-09 06:38:45
Tagged date : UTC 2014-02-09 06:38:45
Video
ID : 1
Format : AVC
Format/Info : Advanced Video Codec
Format profile : [email protected]
Format settings, CABAC : Yes
Format settings, ReFrames : 3 frames
Codec ID : avc1
Codec ID/Info : Advanced Video Coding
Duration : 3mn 20s
Duration_LastFrame : -39ms
Bit rate : 3 795 Kbps
Width : 1 920 pixels
Height : 1 080 pixels
Display aspect ratio : 16:9
Frame rate mode : Constant
Frame rate : 25.000 fps
Color space : YUV
Chroma subsampling : 4:2:0
Bit depth : 8 bits
Scan type : Progressive
Bits/(Pixel*Frame) : 0.073
Stream size : 90.9 MiB (97%)
Encoded date : UTC 2014-02-09 06:38:45
Tagged date : UTC 2014-02-09 06:38:45
Audio
ID : 2
Format : AAC
Format/Info : Advanced Audio Codec
Format profile : LC
Codec ID : 40
Duration : 3mn 20s
Bit rate mode : Variable
Bit rate : 126 Kbps
Channel(s) : 2 channels
Channel positions : Front: L R
Sampling rate : 44.1 KHz
Compression mode : Lossy
Stream size : 3.01 MiB (3%)
Encoded date : UTC 2014-02-09 06:32:49
Tagged date : UTC 2014-02-09 06:32:49
Shared By Sbyky

Related music:
Justin Timberlake - Not A Bad Thing 1080p Music Video download Justin Timberlake - Not A Bad Thing 1080p Music Video
Video
English
111.7 MB
4.3
/images/5/7/justin-timberlake-not-a-bad-thing-1080p-music-video-.jpg
Sevyn Streeter Ft Kid Ink - nEXt 1080p Music Video download Sevyn Streeter Ft Kid Ink - nEXt 1080p Music Video
Video
English
93.7 MB
4.4
/images/5/4/sevyn-streeter-ft-kid-ink-next-1080p-music-video-.jpg
Lily Allen - Air Balloon 1080p Music Video download Lily Allen - Air Balloon 1080p Music Video
Video
English
110.7 MB
4.9
/images/5/0/lily-allen-air-balloon-1080p-music-video-.jpg
Charli XCX - Boom Clap 1080p Music Video download Charli XCX - Boom Clap 1080p Music Video
Video
English
57.6 MB
4.9
/images/5/3/charli-xcx-boom-clap-1080p-music-video-.jpg
One Direction - You & I 1080p Music Video download One Direction - You & I 1080p Music Video
Video
English
111.1 MB
4.5
/images/5/5/one-direction-you-26-i-1080p-music-video-.jpg
Nina Nesbitt - Selfies 1080p Music Video download Nina Nesbitt - Selfies 1080p Music Video
Video
English
56.0 MB
4.4
/images/5/3/nina-nesbitt-selfies-1080p-music-video-.jpg
Dj Robert Georgescu Ft Lara - Beside You 1080p Music Video download Dj Robert Georgescu Ft Lara - Beside You 1080p Music Video
Video
English
60.9 MB
4.2
/images/5/9/dj-robert-georgescu-ft-lara-beside-you-1080p-music-video-.jpg
Karmin - I Want It All 1080p Music Video download Karmin - I Want It All 1080p Music Video
Video
English
85.2 MB
4.6
/images/5/4/karmin-i-want-it-all-1080p-music-video-.jpg
Shakira - Empire 1080p Music Video download Shakira - Empire 1080p Music Video
Video
English
94.2 MB
4.1
/images/5/0/shakira-empire-1080p-music-video-.jpg
Alizée - Blonde 1080p Music Video download Alizée - Blonde 1080p Music Video
Video
French
86.3 MB
4.3
/images/5/6/alizc3a9e-blonde-1080p-music-video-.jpg