Files 42316
» » Ellie Goulding - Beating Heart 720p Music Video
Language: English
Size: 40.0 MB
Votes: 168
Downloaded: 34
Category: Video
Format: MP3, FLAC
4.0

File list

  • Ellie Goulding - Beating Heart [Music Video] 720p [Sbyky].MP4 (40.0 MB)

Joe Janiak, Elena Goulding.

This Beating Heart 720p. Ellie Goulding - Beating Heart (Official Video) - Продолжительность: 3:47 elliegoulding Recommended for you. 3:47. Two Hours of Worship Piano Hillsong Elevation Bethel Jesus Culture Passion Kari Jobe - Продолжительность: 1:58:15 Dan Musselman Recommended for you.

Beating Heart" is a song recorded by English singer Ellie Goulding for the soundtrack to the film Divergent (2014). The song was written by Goulding and Joe Janiak, and produced by Greg Kurstin. It was released on 22 April 2014 as the second single from the soundtrack. British singer-songwriter Joe Janiak wrote the original version of "Beating Heart" on banjo in 2012.

Forums Video Mania Music Videos . . Ellie Goulding - On My Mind (1080p) (Youtube) (WebRip). UnitedReleases, Jun 12, 2016, in forum: Music Videos. Ellie Goulding - Beating Heart (Director's Cut) HD 720p. Discussion in 'Music Videos' started by krpro, Mar 8, 2016. krpro Well-Known Member.

Клип британской певицы Ellie Goulding на песню Beating Heart (2014). Ellie Goulding - Something In The Way You Move. Lizzo - Jerome (Live at the 2019 American Music Awards) 2. 1. Opeth - Universal Truth 2. The Temper Trap - Sweet Disposition (Blazy & Sighter Rmx) 2.

Beating Heart Artist Ellie Goulding Director Ben Newbury Label Unknown; no label specified Year. Ellie Goulding - Beating Heart.


General
Complete name : Ellie Goulding - Beating Heart [Music Video] 720p [Sbyky].MP4
Format : MPEG-4
Format profile : Base Media
Codec ID : isom
File size : 40.0 MiB
Duration : 3mn 46s
Overall bit rate mode : Variable
Overall bit rate : 1 482 Kbps
Encoded date : UTC 2014-03-25 22:14:39
Tagged date : UTC 2014-03-25 22:14:39
Video
ID : 1
Format : AVC
Format/Info : Advanced Video Codec
Format profile : [email protected]
Format settings, CABAC : Yes
Format settings, ReFrames : 3 frames
Codec ID : avc1
Codec ID/Info : Advanced Video Coding
Duration : 3mn 46s
Bit rate : 1 354 Kbps
Width : 1 280 pixels
Height : 720 pixels
Display aspect ratio : 16:9
Frame rate mode : Constant
Frame rate : 25.000 fps
Color space : YUV
Chroma subsampling : 4:2:0
Bit depth : 8 bits
Scan type : Progressive
Bits/(Pixel*Frame) : 0.059
Stream size : 36.5 MiB (91%)
Encoded date : UTC 2014-03-25 22:14:39
Tagged date : UTC 2014-03-25 22:14:39
Audio
ID : 2
Format : AAC
Format/Info : Advanced Audio Codec
Format profile : LC
Codec ID : 40
Duration : 3mn 46s
Bit rate mode : Variable
Bit rate : 126 Kbps
Channel(s) : 2 channels
Channel positions : Front: L R
Sampling rate : 44.1 KHz
Compression mode : Lossy
Stream size : 3.39 MiB (8%)
Encoded date : UTC 2014-03-25 22:14:34
Tagged date : UTC 2014-03-25 22:14:34
Shared By Sbyky

Related music:
Blue - Break My Heart 720p Music Video download Blue - Break My Heart 720p Music Video
Video
English
54.4 MB
4.1
/images/5/1/blue-break-my-heart-720p-music-video-.jpg
Kim Cesarion - Undressed 720p Music Video download Kim Cesarion - Undressed 720p Music Video
Video
English
32.9 MB
4.4
/images/5/9/kim-cesarion-undressed-720p-music-video-.jpg
Fall Out Boy - Where Did The Party Go 720p Music Video download Fall Out Boy - Where Did The Party Go 720p Music Video
Video
English
46.7 MB
4.9
/images/5/7/fall-out-boy-where-did-the-party-go-720p-music-video-.jpg
Coldplay - Magic 720p Music Video download Coldplay - Magic 720p Music Video
Video
English
78.4 MB
4.2
/images/5/4/coldplay-magic-720p-music-video-.jpg
Pharrell Williams - Happy 720p Music Video download Pharrell Williams - Happy 720p Music Video
Video
English
34.0 MB
4.3
/images/5/6/pharrell-williams-happy-720p-music-video-.jpg
Arash Ft Helena - One Day 720p Music Video download Arash Ft Helena - One Day 720p Music Video
Video
English
43.6 MB
4.5
/images/5/3/arash-ft-helena-one-day-720p-music-video-.jpg
Neon Jungle - Welcome To The Jungle 720p Music Video download Neon Jungle - Welcome To The Jungle 720p Music Video
Video
English
52.1 MB
4.9
/images/5/9/neon-jungle-welcome-to-the-jungle-720p-music-video-.jpg