Files 42316
» » Pitbull - Back In Time 1080p Music Video
Language: English
Size: 95.7 MB
Votes: 519
Downloaded: 36
Category: Video
Format: MP3, FLAC
4.0

File list

  • Pitbull - Back In Time [Music Video] 1080p [Sbyky].MP4 (95.7 MB)

Предложено пользователем SME. Pitbull - Back in Time (Official Video).

Предложено пользователем SME. Back in Time (featured in "Men In Black 3"). Исполнитель. Pitbull - Back in Time (Official Video)

Предложено пользователем SME.

Forums Video Mania Music Videos Masters & BLU-RAY Master & Master RIP . Pitbull - Back in Time (1080p Master). Discussion in 'MASTER & MASTER RIP' started by 777josem, Nov 2, 2015. Page 1 of 2. 1 2 Next . 777josem ProRes 1080p LPCM V. I. P. Uploader. Video ID : 2 Format : AVC Format/Info : Advanced Video Codec Format profile : [email protected] 1 Format settings, CABAC : No Format settings, ReFrames : 2 frames Codec ID : avc1 Codec ID/Info : Advanced Video Coding Duration : 3mn 31s Bit rate : 5 011 Kbps Width : 1 280 pixels Height : 720 pixels Display aspect ratio : 16:9 Frame rate mode : Constant Frame rate

Jennifer Lopez Dance Again Live Performance 720p HD American Idol Music Video Official Ft Pitbull. Copy video URL. Copy video URL at current time.

Music video by Pitbull performing Back in Time. C) 2012 RCA Records, a division of Sony Music Entertainment. you've been FUCKING lied to. 4 years назад. Never thought i'd see a pokemon cameo in a Pitbull music :16 Look in the screen.

Download Pitbull Full HD Music Video Songs. You can download Pitbull 720p & 1080p High Definition Blu-ray Quality Videos to your computer for free. Music video by Pitbull performing "Back In Time ft. Men In Black III" featuring along with Men In Black III. This video length is 03mn & 31s.


General
Complete name : Pitbull - Back In Time [Music Video] 1080p [Sbyky].MP4
Format : MPEG-4
Format profile : Base Media
Codec ID : isom
File size : 95.7 MiB
Duration : 3mn 32s
Overall bit rate mode : Variable
Overall bit rate : 3 773 Kbps
Encoded date : UTC 2013-09-11 10:21:44
Tagged date : UTC 2013-09-11 10:21:44
Video
ID : 1
Format : AVC
Format/Info : Advanced Video Codec
Format profile : [email protected]
Format settings, CABAC : Yes
Format settings, ReFrames : 2 frames
Codec ID : avc1
Codec ID/Info : Advanced Video Coding
Duration : 3mn 32s
Bit rate : 3 518 Kbps
Width : 1 920 pixels
Height : 1 080 pixels
Display aspect ratio : 16:9
Frame rate mode : Variable
Frame rate : 23.976 fps
Minimum frame rate : 23.974 fps
Maximum frame rate : 3 000.000 fps
Color space : YUV
Chroma subsampling : 4:2:0
Bit depth : 8 bits
Scan type : Progressive
Bits/(Pixel*Frame) : 0.071
Stream size : 89.2 MiB (93%)
Encoded date : UTC 2013-09-11 10:21:44
Tagged date : UTC 2013-09-11 10:21:44
Audio
ID : 2
Format : AAC
Format/Info : Advanced Audio Codec
Format profile : LC
Codec ID : 40
Duration : 3mn 32s
Bit rate mode : Variable
Bit rate : 254 Kbps
Channel(s) : 2 channels
Channel positions : Front: L R
Sampling rate : 44.1 KHz
Compression mode : Lossy
Delay relative to video : 42ms
Stream size : 6.43 MiB (7%)
Encoded date : UTC 2013-09-11 10:20:50
Tagged date : UTC 2013-09-11 10:20:50
Shared By Sbyky

Related music:
Pitbull Ft Ke$ha - Timber 1080p Music Video download Pitbull Ft Ke$ha - Timber 1080p Music Video
Video
English
85.8 MB
4.4
/images/5/7/pitbull-ft-ke24ha-timber-1080p-music-video-.jpg
Little Mix - Little Me 1080p Music Video download Little Mix - Little Me 1080p Music Video
Video
English
74.7 MB
4.9
/images/5/1/little-mix-little-me-1080p-music-video-.jpg
Pitbull - I Know You Want Me 1080p Music Video download Pitbull - I Know You Want Me 1080p Music Video
Video
English
96.3 MB
4.3
/images/5/9/pitbull-i-know-you-want-me-1080p-music-video-.jpg
Fall Out Boy - The Phoenix 1080p Music Video download Fall Out Boy - The Phoenix 1080p Music Video
Video
English
77.6 MB
4.9
/images/5/8/fall-out-boy-the-phoenix-1080p-music-video-.jpg
Eminem Ft Rihanna - The Monster 1080p download Eminem Ft Rihanna - The Monster 1080p
Video
English
108.0 MB
4.7
/images/5/3/eminem-ft-rihanna-the-monster-1080p-.jpg
YG Ft DJ Mustard - Pop It, Shake It 1080p Music Video download YG Ft DJ Mustard - Pop It, Shake It 1080p Music Video
Video
English
110.0 MB
4.7
/images/5/9/yg-ft-dj-mustard-pop-it2c-shake-it-1080p-music-video-.jpg
Pitbull Ft Ke$ha - Timber 720p Music Video download Pitbull Ft Ke$ha - Timber 720p Music Video
Video
English
46.9 MB
4.3
/images/5/5/pitbull-ft-ke24ha-timber-720p-music-video-.jpg
Passenger - Let Her Go 1080p Music Video download Passenger - Let Her Go 1080p Music Video
Video
English
86.7 MB
4.2
/images/5/0/passenger-let-her-go-1080p-music-video-.jpg