Files 42316
» » LINKIN PARK : Leave Out All The Rest x Iridescent 4K-TV 50FPS x265 Mr J 2160p Live at O2, Berlin 2015
Language: English
Size: 1.2 GB
Votes: 727
Downloaded: 25
Category: Video
Format: MP3, FLAC
4.8

File list

  • LINKIN PARK - Leave Out All The Rest x Iridescent [Live at O2, Berlin] [2015].mkv (1.2 GB)

4K-TV 50FPS x265 Mr. J Music Video.

How to use Official Tab. Learn about all the cool features of Official Tabs.

Tuning: D A D G B E. Key: Am. How to use Official Tab.

2014) Encoded date : UTC 2014-11-29 16:55:28 Writing application : mkvmerge v. 0 ('Nouages') 64bit built on Oct 22 2014 18:53:34 Writing library : libebml v. 1 DURATION : 01:41:44.

4K-TV 50FPS x265 Mr.

| LINKIN PARK : Leave Out All The Rest x Iridescent [Live at O2, Berlin] [2015] | 4K-TV 50FPS | x265 | Mr. J |
Click on the screenshots thumbnails to view the original 4K screenshots.
Screenshot's

Media Information


Code:


General
Unique ID                   : 300745480695649348366553796190613019307 (0xE2417902487DFCD5BDFD026076EC1AAB)
Complete name               : LINKIN PARK - Leave Out All The Rest x Iridescent [Live at O2, Berlin] [2015].mkv
Format                      : Matroska
Format version              : Version 4
File size                   : 1.20 GiB
Duration                    : 5 min 17 s
Overall bit rate            : 32.4 Mb/s
Movie name                  : | LINKIN PARK : Leave Out All The Rest x Iridescent [Live at O2, Berlin] [2015] | 4K-TV 50FPS | x265 | Mr. J |
Encoded date                : UTC 2019-05-23 09:19:15
Writing application         : mkvmerge v33.1.0 ('Primrose') 64-bit
Writing library             : libebml v1.3.7 + libmatroska v1.5.0
Video
ID                          : 1
Format                      : HEVC
Format/Info                 : High Efficiency Video Coding
Format profile              : [email protected]@Main
Codec ID                    : V_MPEGH/ISO/HEVC
Duration                    : 5 min 17 s
Bit rate                    : 32.2 Mb/s
Width                       : 3 840 pixels
Height                      : 2 160 pixels
Display aspect ratio        : 1.85:1
Frame rate mode             : Constant
Frame rate                  : 50.000 FPS
Color space                 : YUV
Chroma subsampling          : 4:2:0
Bit depth                   : 8 bits
Bits/(Pixel*Frame)          : 0.078
Stream size                 : 1.19 GiB (99%)
Title                       : | LINKIN PARK : Leave Out All The Rest x Iridescent [Live at O2, Berlin] [2015] | 4K-TV 50FPS | x265 | Mr. J |
Language                    : English
Default                     : Yes
Forced                      : No
Audio
ID                          : 2
Format                      : MPEG Audio
Format version              : Version 1
Format profile              : Layer 2
Codec ID                    : A_MPEG/L2
Codec ID/Hint               : MP2
Duration                    : 5 min 17 s
Bit rate mode               : Constant
Bit rate                    : 192 kb/s
Channel(s)                  : 2 channels
Sampling rate               : 48.0 kHz
Frame rate                  : 41.667 FPS (1152 SPF)
Compression mode            : Lossy
Delay relative to video     : 17 ms
Stream size                 : 7.27 MiB (1%)
Title                       : Englihs DD_2.0
Language                    : English
Default                     : Yes
Forced                      : No
Related music:
Linkin Park - A Thousand Suns 2010-MP3-Cov download Linkin Park - A Thousand Suns 2010-MP3-Cov
MP3
English
65.3 MB
4.5
/images/5/5/linkin-park-a-thousand-suns-2010-mp3-cov-.jpg
Linkin Park - LIVE! Germany and Italy 2 Shows 2017 ak320 4-CD download Linkin Park - LIVE! Germany and Italy 2 Shows 2017 ak320 4-CD
MP3
English
484.5 MB
4.2
/images/5/8/linkin-park-live21-germany-and-italy-2-shows-2017-ak320-4-cd.jpg
Linkin Park - One More Light SMOk3 Live 2017 download Linkin Park - One More Light SMOk3 Live 2017
MP3
English
155.6 MB
4.9
/images/5/4/linkin-park-one-more-light-smok3-live-2017.jpg
Linkin Park - Hybrid Theory CD-EAC-FLAC 2000-10-24 download Linkin Park - Hybrid Theory CD-EAC-FLAC 2000-10-24
Lossless
English
278.2 MB
4.3
/images/5/9/linkin-park-hybrid-theory-cd-eac-flac-2000-10-24.jpg
Linkin Park - One More Light Live Mp3 2017 320kbps download Linkin Park - One More Light Live Mp3 2017 320kbps
MP3
English
158.1 MB
4.1
/images/5/2/linkin-park-one-more-light-live-mp3-2017-320kbps.jpg
Linkin Park - Underground V2 0 rar download Linkin Park - Underground V2 0 rar
Album
English
29.6 MB
4.0
/images/5/1/linkin-park-underground-v2-0-rar.jpg
Linkin Park - Discography 2000-2017 DJ All 320 collection download Linkin Park - Discography 2000-2017 DJ All 320 collection
MP3
English
1.0 GB
4.3
/images/5/4/linkin-park-discography-2000-2017-dj-all-320-collection.jpg
Linkin Park feat Rakim - Guilty All the Same mp3 2014 320KBps GWC download Linkin Park feat Rakim - Guilty All the Same mp3 2014 320KBps GWC
MP3
English
13.7 MB
4.4
/images/5/0/linkin-park-feat-rakim-guilty-all-the-same-mp3-2014-320kbps-gwc.jpg
LINKIN PARK - Road To Revolution - Live At Milton Keynes 1080p BDRip x265 DTS-HD MA 5 1 Kira 2008 download LINKIN PARK - Road To Revolution - Live At Milton Keynes 1080p BDRip x265 DTS-HD MA 5 1 Kira 2008
Concerts
English
10.5 GB
4.3
/images/5/3/linkin-park-road-to-revolution-live-at-milton-keynes-1080p-bdrip-x265-dts-hd-ma-5-1-kira-2008-.jpg